<?xml version="1.0" standalone="no"?>
<!DOCTYPE svg PUBLIC "-//W3C//DTD SVG 1.1//EN" "http://www.w3.org/Graphics/SVG/1.1/DTD/svg11.dtd" >
<svg xmlns="http://www.w3.org/2000/svg" xmlns:xlink="http://www.w3.org/1999/xlink" version="1.1">
<metadata>
Created by FontForge 20201107 at Mon Feb  6 14:54:44 2023
 By 
Copyright (c) 2021 by TypeType. All rights reserved. Special version for DaFont.
</metadata>
<defs>
<font id="TTTravelsNextTrl-Blc" horiz-adv-x="0" >
  <font-face 
    font-family="TT Travels Next Trl Blc"
    font-weight="900"
    font-stretch="normal"
    units-per-em="1000"
    panose-1="2 11 0 3 4 0 0 1 2 4"
    ascent="800"
    descent="-200"
    x-height="510"
    cap-height="700"
    bbox="-620 -419 1635 1010"
    underline-thickness="90"
    underline-position="-200"
    unicode-range="U+0020-FB03"
  />
<missing-glyph horiz-adv-x="900" 
d="M100 0v284h45v-139h33v139h50v31h-128v126l19 -61h23l34 106l33 -106h23l54 170h-32l-34 -110l-35 110h-19l-35 -110l-31 103v157h700v-150h-110v-170h110v-91q-6 13 -19.5 20t-30.5 7q-27 0 -43.5 -14.5t-16.5 -34.5q0 -22 14.5 -32.5t39.5 -17.5q17 -5 25.5 -9.5
t8.5 -13.5q0 -21 -28 -21q-14 0 -21 7t-7 18h-33q0 -24 17 -39.5t44 -15.5q17 0 30.5 6.5t19.5 13.5v-163h-700zM311 380h33v62h24l35 -62h37l-40 67q36 17 36 50q0 22 -16 37.5t-41 15.5h-68v-170zM469 550v-170h33v170h-33zM580 519v-139h32v139h50v31h-132v-31h50z
M344 473v46h35q10 0 17 -6.5t7 -16.5q0 -12 -7.5 -17.5t-16.5 -5.5h-35zM800 483h-78v36h78v-36zM800 411h-78v41h78v-41zM387.5 167.5q22.5 24.5 22.5 61.5t-23 62t-59 25t-59 -25t-23 -62t22.5 -61.5t59.5 -24.5t59.5 24.5zM633 162q19 19 19 47v106h-32v-106
q0 -15 -9.5 -25t-25.5 -10q-17 0 -26.5 10.5t-9.5 24.5v106h-32v-106q0 -28 19.5 -47t48.5 -19t48 19zM800 224q-15 14 -46 22q-16 5 -23 9t-7 12q0 9 7.5 14.5t18.5 5.5q10 0 18 -7t8 -18h24v-38zM291.5 190q-14.5 16 -14.5 39q0 25 14 40.5t37 15.5q24 0 37.5 -15.5
t13.5 -40.5q0 -23 -14.5 -39t-36.5 -16t-36.5 16z" />
    <glyph glyph-name="fi" unicode="fi" horiz-adv-x="1175" 
d="M822.5 579.5q-32.5 29.5 -32.5 75.5t32.5 75.5t87.5 29.5t87.5 -29.5t32.5 -75.5t-32.5 -75.5t-87.5 -29.5t-87.5 29.5zM1025 180h140v-180h-515v180h165v99q0 26 -10.5 36t-36.5 10h-413v-325h-220v325h-130v160h177v20q-70 0 -103.5 25t-33.5 67q0 122 320 122
q110 0 182 -25.5t105 -68t33 -92.5v-3h-220v3q0 14 -25 25t-81 11q-55 0 -79.5 -14t-24.5 -35q0 -10 4.5 -18.5t10.5 -11.5h574q70 0 109 -15t55.5 -47.5t16.5 -89.5v-158z" />
    <glyph glyph-name="f_f_i" unicode="ffi" horiz-adv-x="1645" 
d="M1495 180h140v-180h-515v180h165v99q0 26 -10.5 36t-36.5 10h-373v-325h-220v325h-290v-325h-220v325h-130v160h177v20q-70 0 -103.5 25t-33.5 67q0 55 74 88.5t266 33.5q94 0 164 -12t108 -31q35 20 95 31.5t143 11.5q115 0 192 -17t150 -59v-153h77q70 0 109 -15
t55.5 -47.5t16.5 -89.5v-158zM682 490q-24 32 -95 55.5t-168 23.5q-95 0 -129.5 -13.5t-34.5 -35.5q0 -10 4.5 -18.5t10.5 -11.5h412zM1158 490q-28 35 -96 57t-153 22q-154 0 -154 -49q0 -10 4.5 -18.5t10.5 -11.5h388z" />
    <glyph glyph-name=".notdef" horiz-adv-x="900" 
d="M100 0v284h45v-139h33v139h50v31h-128v126l19 -61h23l34 106l33 -106h23l54 170h-32l-34 -110l-35 110h-19l-35 -110l-31 103v157h700v-150h-110v-170h110v-91q-6 13 -19.5 20t-30.5 7q-27 0 -43.5 -14.5t-16.5 -34.5q0 -22 14.5 -32.5t39.5 -17.5q17 -5 25.5 -9.5
t8.5 -13.5q0 -21 -28 -21q-14 0 -21 7t-7 18h-33q0 -24 17 -39.5t44 -15.5q17 0 30.5 6.5t19.5 13.5v-163h-700zM311 380h33v62h24l35 -62h37l-40 67q36 17 36 50q0 22 -16 37.5t-41 15.5h-68v-170zM469 550v-170h33v170h-33zM580 519v-139h32v139h50v31h-132v-31h50z
M344 473v46h35q10 0 17 -6.5t7 -16.5q0 -12 -7.5 -17.5t-16.5 -5.5h-35zM800 483h-78v36h78v-36zM800 411h-78v41h78v-41zM387.5 167.5q22.5 24.5 22.5 61.5t-23 62t-59 25t-59 -25t-23 -62t22.5 -61.5t59.5 -24.5t59.5 24.5zM633 162q19 19 19 47v106h-32v-106
q0 -15 -9.5 -25t-25.5 -10q-17 0 -26.5 10.5t-9.5 24.5v106h-32v-106q0 -28 19.5 -47t48.5 -19t48 19zM800 224q-15 14 -46 22q-16 5 -23 9t-7 12q0 9 7.5 14.5t18.5 5.5q10 0 18 -7t8 -18h24v-38zM291.5 190q-14.5 16 -14.5 39q0 25 14 40.5t37 15.5q24 0 37.5 -15.5
t13.5 -40.5q0 -23 -14.5 -39t-36.5 -16t-36.5 16z" />
    <glyph glyph-name=".null" 
 />
    <glyph glyph-name="nonmarkingreturn" 
 />
    <glyph glyph-name="space" unicode=" " horiz-adv-x="260" 
 />
    <glyph glyph-name="exclam" unicode="!" horiz-adv-x="335" 
d="M249 256h-162l-39 194v250h240v-250zM79 18.5q-34 32.5 -34 82.5t34 82.5t88 32.5q55 0 89 -32.5t34 -82.5t-34 -82.5t-89 -32.5q-54 0 -88 32.5z" />
    <glyph glyph-name="quotedbl" unicode="&#x22;" horiz-adv-x="520" 
d="M220 380h-170l-20 235v85h210v-85zM470 380h-170l-20 235v85h210v-85z" />
    <glyph glyph-name="numbersign" unicode="#" horiz-adv-x="885" 
d="M855 565v-145h-143l-34 -140h119v-145h-154l-33 -135h-165l33 135h-180l-33 -135h-165l33 135h-108v145h143l34 140h-119v145h154l33 135h165l-33 -135h180l33 135h165l-33 -135h108zM333 280h180l34 140h-180z" />
    <glyph glyph-name="dollar" unicode="$" horiz-adv-x="935" 
d="M821.5 72.5q-73.5 -62.5 -230.5 -80.5v-126h-240v127q-157 19 -231.5 89.5t-74.5 176.5v11h255v-5q0 -44 39.5 -69t132.5 -25q96 0 132 15t36 39t-25.5 35.5t-65 15.5t-108.5 7q-119 5 -197.5 18t-136 57.5t-57.5 133.5q0 85 71 143t230 74v125h240v-127
q151 -21 225 -89.5t74 -164.5v-8h-255v8q0 31 -40 53.5t-125 22.5q-95 0 -130 -13.5t-35 -35.5q0 -27 42.5 -34.5t139.5 -10.5q122 -3 204 -15t143 -57.5t61 -137.5q0 -90 -73.5 -152.5z" />
    <glyph glyph-name="percent" unicode="%" horiz-adv-x="915" 
d="M119.5 377.5q-45.5 23.5 -70 64.5t-24.5 92t24.5 92t70 64.5t105.5 23.5t105.5 -23.5t70 -64.5t24.5 -92t-24.5 -92t-70 -64.5t-105.5 -23.5t-105.5 23.5zM280 0h-165l520 700h165zM264.5 494.5q15.5 15.5 15.5 39.5t-15.5 39.5t-39.5 15.5t-39.5 -15.5t-15.5 -39.5
t15.5 -39.5t39.5 -15.5t39.5 15.5zM584.5 9.5q-45.5 23.5 -70 64.5t-24.5 92t24.5 92t70 64.5t105.5 23.5t105.5 -23.5t70 -64.5t24.5 -92t-24.5 -92t-70 -64.5t-105.5 -23.5t-105.5 23.5zM729.5 126.5q15.5 15.5 15.5 39.5t-15.5 39.5t-39.5 15.5t-39.5 -15.5t-15.5 -39.5
t15.5 -39.5t39.5 -15.5t39.5 15.5z" />
    <glyph glyph-name="ampersand" unicode="&#x26;" horiz-adv-x="850" 
d="M870 119l-110 -133l-74 58q-104 -58 -284 -58q-191 0 -279 64t-88 176q0 72 39 122t126 75l-125 97v180h658v-170h-363v-20l218 -170v100h180v-241zM520 173l-182 142q-49 -8 -68.5 -25.5t-19.5 -43.5q0 -40 37.5 -60t137.5 -20q61 0 95 7z" />
    <glyph glyph-name="quotesingle" unicode="'" horiz-adv-x="270" 
d="M220 380h-170l-20 235v85h210v-85z" />
    <glyph glyph-name="parenleft" unicode="(" horiz-adv-x="480" 
d="M455 -290q-126 15 -219.5 85t-144.5 188t-51 272t51 272t144.5 188t219.5 85v-200q-95 -30 -145 -116t-50 -229t50 -229t145 -116v-200z" />
    <glyph glyph-name="parenright" unicode=")" horiz-adv-x="480" 
d="M25 -90q95 30 145 116t50 229t-50 229t-145 116v200q126 -15 219.5 -85t144.5 -188t51 -272t-51 -272t-144.5 -188t-219.5 -85v200z" />
    <glyph glyph-name="asterisk" unicode="*" horiz-adv-x="533" 
d="M252 502q-3 21 -12 36.5t-25 35.5q-17 22 -25 37.5t-8 36.5q0 30 22 48t63 18t63 -18t22 -48q0 -21 -8 -36.5t-25 -37.5q-16 -20 -25 -35.5t-12 -36.5h-30zM39 453q-19 18 -19 48q0 19 7 39q10 31 28 47.5t40 16.5q7 0 21 -4q21 -7 32.5 -19t27.5 -35q14 -21 26.5 -34.5
t31.5 -22.5l-10 -29q-14 2 -19 2q-15 0 -28.5 -3.5t-32.5 -10.5q-33 -13 -54 -13q-32 0 -51 18zM390 447q-38 14 -62 14q-12 0 -18 -1l-10 29q19 9 31.5 22.5t26.5 34.5q16 23 27.5 35t32.5 19q14 4 21 4q22 0 40 -16.5t28 -47.5q7 -24 7 -38q0 -32 -19.5 -50t-51.5 -18
q-21 0 -53 13zM77 325q0 20 12 36q13 18 29 26t41 15t41 14t31 22l25 -17q-14 -28 -14 -62l1 -37q0 -36 -17 -60q-19 -27 -49 -27q-28 0 -58 23q-42 32 -42 67zM357 236q-31 0 -49 26q-18 24 -18 61l1 40q0 34 -13 58l25 17q15 -15 31 -22.5t41 -14.5t41 -15t29 -25
q12 -16 12 -36q0 -37 -42 -67q-31 -22 -58 -22z" />
    <glyph glyph-name="plus" unicode="+" horiz-adv-x="600" 
d="M385 105h-170v165h-175v160h175v165h170v-165h175v-160h-175v-165z" />
    <glyph glyph-name="comma" unicode="," horiz-adv-x="295" 
d="M236 179q34 -37 34 -108q0 -131 -66 -201t-184 -70v145h16q62 0 93 10t42 33q-16 -2 -23 -2q-55 0 -89 32.5t-34 82.5t33 82.5t84 32.5q60 0 94 -37z" />
    <glyph glyph-name="hyphen" unicode="-" horiz-adv-x="535" 
d="M500 227l-465 -107v180l465 107v-180z" />
    <glyph glyph-name="period" unicode="." horiz-adv-x="295" 
d="M59 18.5q-34 32.5 -34 82.5t34 82.5t88 32.5q55 0 89 -32.5t34 -82.5t-34 -82.5t-89 -32.5q-54 0 -88 32.5z" />
    <glyph glyph-name="slash" unicode="/" horiz-adv-x="581" 
d="M200 -120h-200l381 820h200z" />
    <glyph glyph-name="zero" unicode="0" horiz-adv-x="910" 
d="M238 33.5q-93 47.5 -143 130t-50 186.5t50 186.5t143 130t217 47.5t217 -47.5t143 -130t50 -186.5t-50 -186.5t-143 -130t-217 -47.5t-217 47.5zM572 230q43 44 43 120t-43 120t-117 44t-117 -44t-43 -120t43 -120t117 -44t117 44z" />
    <glyph glyph-name="one" unicode="1" horiz-adv-x="760" 
d="M535 200h205v-200h-690v200h240v50q0 70 19.5 128t60.5 142h-20q-35 -71 -68.5 -110t-77 -56.5t-109.5 -17.5h-10v205h50q180 0 180 154v5h220v-500z" />
    <glyph glyph-name="two" unicode="2" horiz-adv-x="885" 
d="M801.5 330q-48.5 -48 -116.5 -62t-175 -19q-66 -3 -105 -8t-68 -19t-38 -42h531v-180h-775v141q0 108 53.5 161.5t126 69t182.5 21.5q66 4 101.5 9t58.5 19t23 42q0 31 -33.5 48.5t-118.5 17.5q-79 0 -116 -26t-37 -68v-15h-250v20q0 125 99 199.5t304 74.5
q140 0 230 -32t131 -86t41 -122q0 -96 -48.5 -144z" />
    <glyph glyph-name="three" unicode="3" horiz-adv-x="865" 
d="M600 433q240 -23 240 -211q0 -107 -96 -171.5t-307 -64.5q-217 0 -309.5 66.5t-92.5 194.5v8h250v-3q0 -28 12.5 -45.5t45.5 -26.5t94 -9q87 0 120 16.5t33 46.5q0 62 -132 62h-178v120l310 135v20q-68 -29 -149 -47.5t-165 -18.5h-211v195h735v-180z" />
    <glyph glyph-name="four" unicode="4" horiz-adv-x="875" 
d="M725 299h130v-190h-130v-109h-250v109h-440v185l310 406h380v-401zM323 319v-20h167v107q0 61 9 106.5t26 97.5h-20q-17 -52 -36.5 -90t-49.5 -77z" />
    <glyph glyph-name="five" unicode="5" horiz-adv-x="860" 
d="M142 48.5q-92 62.5 -92 170.5v11h250v-4q0 -25 30 -40t110 -15q140 0 140 71t-149 71q-128 0 -151 -33h-240l50 420h715v-180h-534l-20 -146h17q22 44 80 69t171 25q160 0 235.5 -60t75.5 -168q0 -122 -91 -188t-300 -66q-205 0 -297 62.5z" />
    <glyph glyph-name="six" unicode="6" horiz-adv-x="891" 
d="M142.5 76.5q-102.5 90.5 -102.5 273.5q0 182 98.5 273t304.5 91q140 0 230.5 -32t131.5 -85.5t41 -121.5v-9h-250v2q0 28 -33.5 47t-109.5 19q-91 0 -137 -41.5t-46 -117.5v-20h17q21 42 83.5 64t178.5 22q102 0 171 -28t102.5 -76t33.5 -108q0 -243 -388 -243
q-223 0 -325.5 90.5zM606 229q0 62 -158 62t-158 -62q0 -63 158 -63t158 63z" />
    <glyph glyph-name="seven" unicode="7" horiz-adv-x="775" 
d="M180 30q0 360 345 445v20h-495v205h720v-220q-167 -54 -238.5 -162.5t-71.5 -287.5v-30h-260v30z" />
    <glyph glyph-name="eight" unicode="8" horiz-adv-x="880" 
d="M678 357q80 -1 126 -45t46 -116q0 -99 -92.5 -154.5t-317.5 -55.5t-317.5 55.5t-92.5 154.5q0 72 46 116t126 45v20q-69 1 -110.5 41.5t-41.5 106.5q0 84 90.5 136.5t299.5 52.5t299.5 -52.5t90.5 -136.5q0 -66 -41.5 -106.5t-110.5 -41.5v-20zM329.5 516.5
q-29.5 -12.5 -29.5 -35.5t29.5 -36t110.5 -13t110.5 13t29.5 36t-29.5 35.5t-110.5 12.5t-110.5 -12.5zM566.5 185.5q33.5 14.5 33.5 40.5q0 27 -33.5 41.5t-126.5 14.5t-126.5 -14.5t-33.5 -41.5q0 -26 33.5 -40.5t126.5 -14.5t126.5 14.5z" />
    <glyph glyph-name="nine" unicode="9" horiz-adv-x="891" 
d="M218 17.5q-90 31.5 -131.5 83t-41.5 114.5v9h250v-2q0 -21 34.5 -38.5t108.5 -17.5q91 0 137 39.5t46 109.5v20h-17q-21 -42 -83.5 -64t-178.5 -22q-103 0 -171.5 28t-102 77t-33.5 112q0 118 91 183t297 65q223 0 325.5 -90.5t102.5 -273.5q0 -182 -98.5 -273
t-304.5 -91q-140 0 -230 31.5zM566 417q35 18 35 49t-35 49.5t-123 18.5t-123 -18.5t-35 -49.5t35 -49t123 -18t123 18z" />
    <glyph glyph-name="colon" unicode=":" horiz-adv-x="295" 
d="M59 326.5q-34 32.5 -34 82.5t34 82.5t88 32.5q55 0 89 -32.5t34 -82.5t-34 -82.5t-89 -32.5q-54 0 -88 32.5zM59 18.5q-34 32.5 -34 82.5t34 82.5t88 32.5q55 0 89 -32.5t34 -82.5t-34 -82.5t-89 -32.5q-54 0 -88 32.5z" />
    <glyph glyph-name="semicolon" unicode=";" horiz-adv-x="295" 
d="M59 326.5q-34 32.5 -34 82.5t34 82.5t88 32.5q55 0 89 -32.5t34 -82.5t-34 -82.5t-89 -32.5q-54 0 -88 32.5zM236 179q34 -37 34 -108q0 -131 -66 -201t-184 -70v145h16q62 0 93 10t42 33q-16 -2 -23 -2q-55 0 -89 32.5t-34 82.5t33 82.5t84 32.5q60 0 94 -37z" />
    <glyph glyph-name="less" unicode="&#x3c;" horiz-adv-x="570" 
d="M30 445l500 160v-170l-293 -85l293 -85v-170l-500 160v190z" />
    <glyph glyph-name="equal" unicode="=" horiz-adv-x="610" 
d="M565 380h-520v150h520v-150zM565 170h-520v150h520v-150z" />
    <glyph glyph-name="greater" unicode="&#x3e;" horiz-adv-x="570" 
d="M40 435v170l500 -160v-190l-500 -160v170l293 85z" />
    <glyph glyph-name="question" unicode="?" horiz-adv-x="770" 
d="M253 277q0 51 25.5 82.5t60 47t86.5 30.5q41 11 60.5 21t19.5 26q0 19 -23.5 29.5t-88.5 10.5q-128 0 -128 -68v-4h-240v9q0 253 360 253q190 0 275 -55t85 -147q0 -60 -25 -97.5t-59 -56t-85 -35.5q-44 -15 -63.5 -27t-19.5 -34v-6h-240v21zM284 18.5q-34 32.5 -34 82.5
t34 82.5t88 32.5q55 0 89 -32.5t34 -82.5t-34 -82.5t-89 -32.5q-54 0 -88 32.5z" />
    <glyph glyph-name="at" unicode="@" horiz-adv-x="1113" 
d="M278.5 -127q-112.5 57 -173 157t-60.5 225t61.5 225t178 157t274.5 57q157 0 273.5 -55.5t178.5 -149t62 -204.5q0 -121 -55 -183t-153 -62q-69 0 -110 22.5t-63 67.5h-17q-19 -45 -59 -67.5t-109 -22.5q-96 0 -153 58t-57 157t56 157t149 58q59 0 98 -23t55 -57h20
l-30 70h152v-207q0 -31 13.5 -47t37.5 -16q28 0 41.5 20.5t13.5 74.5q0 71 -40 130t-118 94t-186 35q-110 0 -187 -36.5t-117 -102t-40 -150.5t39 -150.5t112.5 -102t174.5 -36.5q69 0 117.5 9.5t98.5 31.5l68 -125q-45 -34 -114.5 -50t-169.5 -16q-150 0 -262.5 57z
M606.5 208q20.5 18 20.5 47t-20.5 47t-59.5 18t-59.5 -18t-20.5 -47t20.5 -47t59.5 -18t59.5 18z" />
    <glyph glyph-name="A" unicode="A" horiz-adv-x="904" 
d="M904 0h-265l-34 90h-306l-34 -90h-265l304 700h296zM371 280h162l-29 77q-25 64 -33.5 105t-8.5 83v5h-20v-5q0 -42 -8.5 -83t-33.5 -105z" />
    <glyph glyph-name="B" unicode="B" horiz-adv-x="901" 
d="M703 359q88 -7 133 -52t45 -117q0 -190 -263 -190h-553v700h559q118 0 175 -44t57 -120q0 -66 -39 -107t-114 -48v-22zM305 515v-80h249q26 0 39 10.5t13 29.5t-13 29.5t-39 10.5h-249zM577 185q26 0 40 12t14 33t-14 33t-40 12h-272v-90h272z" />
    <glyph glyph-name="C" unicode="C" horiz-adv-x="1006" 
d="M252.5 33.5q-105.5 47.5 -159 130t-53.5 186.5t53.5 186.5t159 130t255.5 47.5q140 0 241.5 -39t158 -106.5t68.5 -153.5h-250q-6 24 -31 46.5t-72 37.5t-115 15q-105 0 -161.5 -46t-56.5 -118t56.5 -118t161.5 -46q68 0 115 15t72 37.5t31 46.5h250
q-12 -86 -68.5 -153.5t-158 -106.5t-241.5 -39q-150 0 -255.5 47.5z" />
    <glyph glyph-name="D" unicode="D" horiz-adv-x="915" 
d="M65 0v700h370q141 0 240 -45t149.5 -124t50.5 -181t-50.5 -181t-149.5 -124t-240 -45h-370zM435 200q93 0 141.5 41t48.5 109t-48.5 109t-141.5 41h-120v-300h120z" />
    <glyph glyph-name="E" unicode="E" horiz-adv-x="830" 
d="M785 700v-190h-470v-72h400v-165h-400v-83h470v-190h-720v700h720z" />
    <glyph glyph-name="F" unicode="F" horiz-adv-x="800" 
d="M765 700v-195h-450v-110h380v-185h-380v-210h-250v700h700z" />
    <glyph glyph-name="G" unicode="G" horiz-adv-x="1005" 
d="M442 230v145h508v-375h-215l41 135h-20q-77 -149 -297 -149q-126 0 -221.5 48t-146.5 131t-51 185q0 104 53.5 186.5t157.5 130t250 47.5q211 0 326 -81.5t143 -217.5h-250q-21 48 -75 76t-143 28q-105 0 -161 -46.5t-56 -122.5q0 -79 56 -126.5t163 -47.5q137 0 196 54
h-258z" />
    <glyph glyph-name="H" unicode="H" horiz-adv-x="960" 
d="M645 465v235h250v-700h-250v260h-330v-260h-250v700h250v-235h330z" />
    <glyph glyph-name="I" unicode="I" horiz-adv-x="730" 
d="M685 0h-640v195h195v310h-195v195h640v-195h-195v-310h195v-195z" />
    <glyph glyph-name="J" unicode="J" horiz-adv-x="805" 
d="M112.5 67q-92.5 81 -92.5 226v17h250v-7q0 -54 29.5 -83t85.5 -29t85.5 29t29.5 83v192h-380v205h630v-403q0 -147 -92 -229t-273 -82q-180 0 -272.5 81z" />
    <glyph glyph-name="K" unicode="K" horiz-adv-x="860" 
d="M569 365l291 -365h-315l-230 325v-325h-250v700h250v-305l220 305h305z" />
    <glyph glyph-name="L" unicode="L" horiz-adv-x="765" 
d="M745 0h-680v700h250v-495h430v-205z" />
    <glyph glyph-name="M" unicode="M" horiz-adv-x="1110" 
d="M65 0v700h385l74 -312q21 -87 21 -116v-12h20v12q0 29 21 116l74 312h385v-700h-240v310q0 83 7.5 137.5t22.5 102.5h-20l-120 -440h-280l-120 440h-20q15 -48 22.5 -102.5t7.5 -137.5v-310h-240z" />
    <glyph glyph-name="N" unicode="N" horiz-adv-x="970" 
d="M65 0v700h388l227 -550h20q-17 45 -26 96.5t-9 123.5v330h240v-700h-388l-227 550h-20q17 -45 26 -96.5t9 -123.5v-330h-240z" />
    <glyph glyph-name="O" unicode="O" horiz-adv-x="1030" 
d="M255 33.5q-107 47.5 -161 130t-54 186.5t54 186.5t161 130t260 47.5t260 -47.5t161 -130t54 -186.5t-54 -186.5t-161 -130t-260 -47.5t-260 47.5zM682.5 231.5q57.5 45.5 57.5 118.5t-57.5 118.5t-167.5 45.5t-167.5 -45.5t-57.5 -118.5t57.5 -118.5t167.5 -45.5
t167.5 45.5z" />
    <glyph glyph-name="P" unicode="P" horiz-adv-x="865" 
d="M526 700q154 0 231.5 -67.5t77.5 -187.5t-77.5 -187.5t-231.5 -67.5h-211v-190h-250v700h461zM513 385q35 0 53.5 16t18.5 44t-18.5 44t-53.5 16h-213v-120h213z" />
    <glyph glyph-name="Q" unicode="Q" horiz-adv-x="1030" 
d="M585 -26q6 -4 20 -4h305v-190h-119q-150 0 -242.5 56t-102.5 153q-131 10 -222.5 59.5t-137.5 127.5t-46 174q0 104 54 186.5t161 130t260 47.5t260 -47.5t161 -130t54 -186.5q0 -97 -47 -175t-139.5 -127.5t-225.5 -59.5q1 -10 7 -14zM347.5 231.5
q57.5 -45.5 167.5 -45.5t167.5 45.5t57.5 118.5t-57.5 118.5t-167.5 45.5t-167.5 -45.5t-57.5 -118.5t57.5 -118.5z" />
    <glyph glyph-name="R" unicode="R" horiz-adv-x="885" 
d="M875 0h-300l-72 181q-10 25 -33 37t-60 12h-95v-230h-250v700h476q150 0 224.5 -61t74.5 -166q0 -58 -26 -105.5t-69.5 -76.5t-95.5 -31v-20q61 -1 101 -26t69 -91zM506 370q41 0 62.5 19t21.5 51t-21.5 51t-62.5 19h-206v-140h206z" />
    <glyph glyph-name="S" unicode="S" horiz-adv-x="935" 
d="M148.5 60q-103.5 74 -103.5 199v11h255v-5q0 -44 39.5 -69t132.5 -25q96 0 132 15t36 39t-25.5 35.5t-65 15.5t-108.5 7q-119 5 -197.5 18t-136 57.5t-57.5 133.5q0 100 98 161t322 61q144 0 238 -35t138 -93.5t44 -132.5v-8h-255v8q0 31 -40 53.5t-125 22.5
q-95 0 -130 -13.5t-35 -35.5q0 -27 42.5 -34.5t139.5 -10.5q122 -3 204 -15t143 -57.5t61 -137.5q0 -106 -101.5 -172.5t-321.5 -66.5t-323.5 74z" />
    <glyph glyph-name="T" unicode="T" horiz-adv-x="770" 
d="M510 0h-250v495h-260v205h770v-205h-260v-495z" />
    <glyph glyph-name="U" unicode="U" horiz-adv-x="935" 
d="M159.5 78.5q-104.5 92.5 -104.5 259.5v362h250v-339q0 -78 41.5 -119t121.5 -41q79 0 120.5 41t41.5 119v339h250v-362q0 -166 -104 -259t-308 -93t-308.5 92.5z" />
    <glyph glyph-name="V" unicode="V" horiz-adv-x="904" 
d="M299 0l-294 700h280l120 -357q23 -69 30 -105.5t7 -82.5v-5h20v5q0 46 7 82.5t30 105.5l120 357h280l-294 -700h-306z" />
    <glyph glyph-name="W" unicode="W" horiz-adv-x="1160" 
d="M185 0l-170 700h270l63 -358q14 -83 14 -181v-11h20v11q0 55 2.5 96.5t10.5 84.5l48 248h274l48 -248q8 -43 10.5 -84.5t2.5 -96.5v-11h20v11q0 98 14 181l63 358h270l-170 -700h-314l-50 219q-14 60 -17.5 95.5t-3.5 120.5v5h-20v-5q0 -85 -3.5 -120.5t-17.5 -95.5
l-50 -219h-314z" />
    <glyph glyph-name="X" unicode="X" horiz-adv-x="910" 
d="M5 0l265 355l-255 345h305l79 -120q27 -41 36.5 -70t9.5 -58v-17h20v17q0 29 9.5 58t36.5 70l79 120h305l-255 -345l265 -355h-310l-92 139q-23 34 -30.5 58.5t-7.5 54.5v13h-20v-13q0 -30 -7.5 -54.5t-30.5 -58.5l-92 -139h-310z" />
    <glyph glyph-name="Y" unicode="Y" horiz-adv-x="842" 
d="M296 0v208l-301 492h285l90 -167q24 -43 32.5 -79.5t8.5 -73.5v-20h20v20q0 37 8.5 73.5t32.5 79.5l90 167h285l-301 -492v-208h-250z" />
    <glyph glyph-name="Z" unicode="Z" horiz-adv-x="845" 
d="M805 0h-760v180l403 300v20h-393v200h740v-180l-403 -300v-20h413v-200z" />
    <glyph glyph-name="bracketleft" unicode="[" horiz-adv-x="475" 
d="M455 -275h-385v1060h385v-190h-170v-680h170v-190z" />
    <glyph glyph-name="backslash" unicode="\" horiz-adv-x="581" 
d="M581 -120h-200l-381 820h200z" />
    <glyph glyph-name="bracketright" unicode="]" horiz-adv-x="475" 
d="M405 -275h-385v190h170v680h-170v190h385v-1060z" />
    <glyph glyph-name="asciicircum" unicode="^" horiz-adv-x="580" 
d="M398 700l172 -340h-200l-80 173l-80 -173h-200l172 340h216z" />
    <glyph glyph-name="underscore" unicode="_" horiz-adv-x="530" 
d="M540 -220h-550v170h550v-170z" />
    <glyph glyph-name="grave" unicode="`" horiz-adv-x="400" 
d="M370 570h-200l-140 180h250z" />
    <glyph glyph-name="a" unicode="a" horiz-adv-x="770" 
d="M92 28q-57 42 -57 113q0 70 57 112t176 42q78 0 127.5 -12t99.5 -35v23q0 40 -34 66.5t-98 26.5q-99 0 -123 -49h-220q11 93 96.5 151t248.5 58q114 0 191.5 -33t115.5 -92t38 -136v-68q0 -16 6.5 -22.5t20.5 -6.5q12 0 23 4v-170q-39 -14 -87 -14q-71 0 -107 28.5
t-36 75.5h-20v-3q0 -41 -57 -71t-185 -30q-119 0 -176 42zM495 143v20q-62 17 -141 17q-56 0 -75 -7t-19 -20t19 -20t75 -7q79 0 141 17z" />
    <glyph glyph-name="b" unicode="b" horiz-adv-x="815" 
d="M353 21.5q-59 35.5 -83 108.5h-20l30 -130h-220v700h220v-135q0 -91 -30 -185h20q24 73 83 108.5t156 35.5q81 0 142.5 -33.5t95 -94.5t33.5 -141t-33.5 -141t-95 -94.5t-142.5 -33.5q-97 0 -156 35.5zM524.5 184q35.5 28 35.5 71t-35.5 71t-102.5 28q-66 0 -101.5 -28
t-35.5 -71t35.5 -71t101.5 -28q67 0 102.5 28z" />
    <glyph glyph-name="c" unicode="c" horiz-adv-x="762" 
d="M192.5 22q-80.5 36 -121.5 97.5t-41 135.5t41 135.5t121.5 97.5t193.5 36q101 0 179 -29.5t124 -82.5t53 -122h-220q-8 27 -42.5 45.5t-93.5 18.5q-64 0 -100 -29t-36 -70t36 -70t100 -29q59 0 93.5 18.5t42.5 45.5h220q-7 -69 -53 -122t-124 -82.5t-179 -29.5
q-113 0 -193.5 36z" />
    <glyph glyph-name="d" unicode="d" horiz-adv-x="815" 
d="M163.5 19.5q-61.5 33.5 -95 94.5t-33.5 141t33.5 141t95 94.5t142.5 33.5q97 0 156 -35.5t83 -108.5h20q-30 94 -30 185v135h220v-700h-220l30 130h-20q-24 -73 -83 -108.5t-156 -35.5q-81 0 -142.5 33.5zM494.5 184q35.5 28 35.5 71t-35.5 71t-101.5 28
q-67 0 -102.5 -28t-35.5 -71t35.5 -71t102.5 -28q66 0 101.5 28z" />
    <glyph glyph-name="e" unicode="e" horiz-adv-x="780" 
d="M746 200h-502q34 -59 147 -59q59 0 88.5 8t51.5 21h210q-15 -42 -55.5 -84t-115.5 -71t-183 -29q-113 0 -193.5 36t-122 97t-41.5 136t41.5 136t123 97t195.5 36q115 0 196 -36t122.5 -98t41.5 -138q0 -23 -4 -52zM244 310h292q-34 59 -146 59t-146 -59z" />
    <glyph glyph-name="f" unicode="f" horiz-adv-x="675" 
d="M135 0v325h-130v160h177v20q-70 0 -103.5 24.5t-33.5 66.5q0 55 70.5 89t249.5 34q164 0 242 -54t78 -142v-3h-220v3q0 13 -24.5 24.5t-80.5 11.5q-59 0 -82 -11.5t-23 -31.5q0 -18 15 -26h320v-165h-235v-325h-220z" />
    <glyph glyph-name="g" unicode="g" horiz-adv-x="767" 
d="M89 -173q-84 47 -84 128q0 98 132 122v17h-31q-61 0 -61 45t61 45h26v17q-39 14 -63 50.5t-24 82.5q0 89 80 139.5t267 50.5h110q35 0 35 28q0 17 -18 42h198q15 -16 20 -27t5 -24q0 -23 -20 -37.5t-62 -14.5h-55v-17q71 -22 99 -59t28 -90q0 -81 -73 -124.5t-249 -43.5
h-181q-12 0 -18 -5t-6 -14t6 -14t18 -5h252q95 0 156.5 -22t90.5 -59t29 -81q0 -83 -84 -130t-293 -47q-207 0 -291 47zM498 285.5q29 13.5 29 39.5t-28.5 40t-107.5 14t-107.5 -14t-28.5 -40t29 -39.5t107 -13.5t107 13.5zM485 -70q35 5 46 13t11 22q0 13 -11 21.5t-46 13
t-104 4.5t-104 -4.5t-46 -13t-11 -21.5q0 -14 11 -22t46 -13t104 -5t104 5z" />
    <glyph glyph-name="h" unicode="h" horiz-adv-x="808" 
d="M60 0v700h220v-150q0 -91 -30 -185h20q23 82 79.5 120.5t144.5 38.5q123 0 193.5 -71.5t70.5 -197.5v-255h-220v203q0 65 -34.5 100.5t-94.5 35.5t-94.5 -35.5t-34.5 -100.5v-203h-220z" />
    <glyph glyph-name="i" unicode="i" horiz-adv-x="550" 
d="M400 180h140v-180h-515v180h165v108q0 26 -10.5 36t-36.5 10q-25 0 -48 -10v180q47 20 124 20q70 0 109 -15t55.5 -47.5t16.5 -89.5v-192zM180.5 594.5q-32.5 29.5 -32.5 75.5t32.5 75.5t87.5 29.5t87.5 -29.5t32.5 -75.5t-32.5 -75.5t-87.5 -29.5t-87.5 29.5z" />
    <glyph glyph-name="j" unicode="j" horiz-adv-x="370" 
d="M-3 -205q-28 5 -57 18v175q45 -18 87 -18q83 0 83 66v252q0 26 -10.5 36t-36.5 10q-25 0 -48 -10v180q47 20 124 20q70 0 109 -15t55.5 -47.5t16.5 -89.5v-340q0 -116 -65.5 -179t-191.5 -63q-38 0 -66 5zM100.5 594.5q-32.5 29.5 -32.5 75.5t32.5 75.5t87.5 29.5
t87.5 -29.5t32.5 -75.5t-32.5 -75.5t-87.5 -29.5t-87.5 29.5z" />
    <glyph glyph-name="k" unicode="k" horiz-adv-x="702" 
d="M508 267l209 -267h-270l-167 243v-243h-220v700h220v-414l162 224h265z" />
    <glyph glyph-name="l" unicode="l" horiz-adv-x="595" 
d="M425 180h160v-180h-565v180h185v298q0 26 -11 36t-41 10q-31 0 -53 -15v180q50 25 136 25q74 0 114.5 -15t57.5 -47.5t17 -89.5v-382z" />
    <glyph glyph-name="m" unicode="m" horiz-adv-x="1109" 
d="M55 0v510h220l-26 -125h20q23 74 69.5 106.5t119.5 32.5q82 0 129.5 -40t55.5 -99h17q23 74 70.5 106.5t123.5 32.5q95 0 150 -59t55 -167v-298h-220v246q0 44 -23.5 68.5t-62.5 24.5t-62.5 -24.5t-23.5 -68.5v-246h-220v246q0 44 -23.5 68.5t-62.5 24.5t-62.5 -24.5
t-23.5 -68.5v-246h-220z" />
    <glyph glyph-name="n" unicode="n" horiz-adv-x="803" 
d="M55 0v510h220l-30 -145h20q23 82 79.5 120.5t144.5 38.5q123 0 193.5 -71.5t70.5 -197.5v-255h-220v203q0 65 -34.5 100.5t-94.5 35.5t-94.5 -35.5t-34.5 -100.5v-203h-220z" />
    <glyph glyph-name="o" unicode="o" horiz-adv-x="794" 
d="M196.5 22q-82.5 36 -124.5 97t-42 136t42 136t124.5 97t200.5 36t200.5 -36t124.5 -97t42 -136t-42 -136t-124.5 -97t-200.5 -36t-200.5 36zM506.5 184q37.5 28 37.5 71q0 42 -38 70.5t-109 28.5t-109 -28.5t-38 -70.5q0 -43 37.5 -71t109.5 -28t109.5 28z" />
    <glyph glyph-name="p" unicode="p" horiz-adv-x="810" 
d="M55 -190v700h220l-30 -130h20q24 73 83 108.5t156 35.5q81 0 142.5 -33.5t95 -94.5t33.5 -141t-33.5 -141t-95 -94.5t-142.5 -33.5q-97 0 -156 35.5t-83 108.5h-20q30 -94 30 -185v-135h-220zM519.5 184q35.5 28 35.5 71t-35.5 71t-102.5 28q-66 0 -101.5 -28t-35.5 -71
t35.5 -71t101.5 -28q67 0 102.5 28z" />
    <glyph glyph-name="q" unicode="q" horiz-adv-x="810" 
d="M535 -55q0 91 30 185h-20q-24 -73 -83 -108.5t-156 -35.5q-81 0 -142.5 33.5t-95 94.5t-33.5 141t33.5 141t95 94.5t142.5 33.5q97 0 156 -35.5t83 -108.5h20l-30 130h220v-700h-220v135zM494.5 184q35.5 28 35.5 71t-35.5 71t-101.5 28q-67 0 -102.5 -28t-35.5 -71
t35.5 -71t102.5 -28q66 0 101.5 28z" />
    <glyph glyph-name="r" unicode="r" horiz-adv-x="728" 
d="M55 0v510h220l-28 -135h20q44 149 199 149q112 0 172 -68.5t60 -209.5v-22h-225v3q0 52 -26 79.5t-73 27.5t-73 -28t-26 -83v-223h-220z" />
    <glyph glyph-name="s" unicode="s" horiz-adv-x="743" 
d="M116 40.5q-81 54.5 -81 144.5v5h225v-2q0 -52 114 -52q66 0 90 9.5t24 24.5q0 19 -32 24.5t-106 8.5q-93 3 -155 12t-108.5 41.5t-46.5 98.5q0 74 79 121.5t255 47.5q111 0 184.5 -27t109.5 -72t40 -100h-225q-3 22 -28 35.5t-81 13.5q-109 0 -109 -32q0 -18 32.5 -23.5
t103.5 -7.5q94 -3 156.5 -12t109 -41.5t46.5 -98.5q0 -78 -78.5 -125.5t-260.5 -47.5q-177 0 -258 54.5z" />
    <glyph glyph-name="t" unicode="t" horiz-adv-x="670" 
d="M138 38q-73 52 -73 133q0 65 41.5 107t105.5 42v20h-202v155h95q35 0 50 15.5t15 49.5v70h180v-125h270v-165h-315q-30 -18 -30 -80q0 -46 20.5 -67.5t64.5 -21.5q41 0 63 16t22 39v14h220v-18q0 -109 -76.5 -172.5t-228.5 -63.5q-149 0 -222 52z" />
    <glyph glyph-name="u" unicode="u" horiz-adv-x="788" 
d="M119 56.5q-69 70.5 -69 193.5v260h220v-208q0 -62 32.5 -96.5t88.5 -34.5q57 0 89.5 34.5t32.5 96.5v208h220v-510h-220l30 145h-20q-45 -159 -217 -159q-118 0 -187 70.5z" />
    <glyph glyph-name="v" unicode="v" horiz-adv-x="714" 
d="M210 0l-215 510h255l74 -256q23 -79 23 -129v-5h20v5q0 50 23 129l74 256h255l-215 -510h-294z" />
    <glyph glyph-name="w" unicode="w" horiz-adv-x="964" 
d="M134 0l-134 510h240l39 -238q11 -64 11 -142v-10h20v10q0 61 14 142l40 238h236l40 -238q14 -81 14 -142v-10h20v10q0 78 11 142l39 238h240l-134 -510h-277l-46 198q-9 36 -12 78t-3 109v5h-20v-5q0 -67 -3 -109t-12 -78l-46 -198h-277z" />
    <glyph glyph-name="x" unicode="x" horiz-adv-x="740" 
d="M0 0l206 260l-196 250h270l43 -70q19 -30 28 -56t9 -54v-5h20v5q0 28 9 54t28 56l43 70h270l-196 -250l206 -260h-275l-57 87q-28 42 -28 88v10h-20v-10q0 -46 -28 -88l-57 -87h-275z" />
    <glyph glyph-name="y" unicode="y" horiz-adv-x="714" 
d="M464 510h255l-224 -487q-58 -125 -139 -179t-198 -54q-38 0 -66 5t-57 18v180q45 -18 94 -18q38 0 64.5 6.5t43.5 22.5l-242 506h255l69 -215q28 -89 28 -140v-5h20v5q0 51 28 140z" />
    <glyph glyph-name="z" unicode="z" horiz-adv-x="677" 
d="M647 0h-612v155l274 160v20h-264v175h592v-155l-274 -160v-20h284v-175z" />
    <glyph glyph-name="braceleft" unicode="{" horiz-adv-x="500" 
d="M320 -275q-106 0 -160.5 54t-54.5 161v150q0 43 -20 62.5t-65 19.5v166q45 0 65 19.5t20 62.5v150q0 107 54.5 161t160.5 54h160v-190h-100q-34 0 -49.5 -15.5t-15.5 -49.5v-139q0 -58 -36 -92t-100 -34v-20q64 0 100 -34t36 -92v-139q0 -34 15.5 -49.5t49.5 -15.5h100
v-190h-160z" />
    <glyph glyph-name="bar" unicode="|" horiz-adv-x="370" 
d="M295 -210h-220v950h220v-950z" />
    <glyph glyph-name="braceright" unicode="}" horiz-adv-x="500" 
d="M20 -275v190h100q34 0 49.5 15.5t15.5 49.5v139q0 58 36 92t100 34v20q-64 0 -100 34t-36 92v139q0 34 -15.5 49.5t-49.5 15.5h-100v190h160q107 0 161 -54t54 -161v-150q0 -43 20 -62.5t65 -19.5v-166q-45 0 -65 -19.5t-20 -62.5v-150q0 -107 -54 -161t-161 -54h-160z
" />
    <glyph glyph-name="asciitilde" unicode="~" horiz-adv-x="610" 
d="M351.5 246q-31.5 13 -65.5 37q-19 13 -30.5 19t-24.5 6q-12 0 -19 -7.5t-7 -20.5q0 -17 5 -37h-167q-13 42 -13 79q0 67 40 106.5t109 39.5q48 0 79.5 -13t65.5 -37q19 -13 30.5 -19t24.5 -6q12 0 19 7.5t7 20.5q0 17 -5 37h167q13 -42 13 -79q0 -67 -40 -106.5
t-109 -39.5q-48 0 -79.5 13z" />
    <glyph glyph-name="uni00A0" unicode="&#xa0;" horiz-adv-x="260" 
 />
    <glyph glyph-name="exclamdown" unicode="&#xa1;" horiz-adv-x="325" 
d="M74 326.5q-34 32.5 -34 82.5t34 82.5t88 32.5q55 0 89 -32.5t34 -82.5t-34 -82.5t-89 -32.5q-54 0 -88 32.5zM283 -190h-240v250l39 194h162l39 -194v-250z" />
    <glyph glyph-name="cent" unicode="&#xa2;" horiz-adv-x="762" 
d="M484 265.5q35 19.5 43 49.5h215q-9 -82 -71.5 -141t-164.5 -81v-113h-240v113q-113 26 -174.5 96t-61.5 161t61.5 161t174.5 96v113h240v-113q102 -22 164.5 -81t71.5 -141h-215q-8 30 -43 49.5t-98 19.5q-68 0 -104.5 -29.5t-36.5 -74.5t36.5 -74.5t104.5 -29.5
q63 0 98 19.5z" />
    <glyph glyph-name="sterling" unicode="&#xa3;" horiz-adv-x="815" 
d="M785 475h-245v8q0 21 -24.5 36t-75.5 15q-100 0 -100 -69v-46h265v-140h-267q-7 -61 -50 -84h497v-195h-760v195q38 0 54 16.5t16 56.5v11h-60v140h60v43q0 119 84 185.5t261 66.5q175 0 260 -63t85 -168v-8z" />
    <glyph glyph-name="currency" unicode="&#xa4;" horiz-adv-x="764" 
d="M644 272l105 -105l-126 -101l-101 101q-61 -22 -140 -22t-140 22l-101 -101l-126 101l105 105q-16 35 -16 78t16 78l-105 105l126 101l101 -101q61 22 140 22t140 -22l101 101l126 -101l-105 -105q16 -35 16 -78t-16 -78zM298.5 293q29.5 -23 83.5 -23t83.5 23t29.5 57
t-29.5 57t-83.5 23t-83.5 -23t-29.5 -57t29.5 -57z" />
    <glyph glyph-name="yen" unicode="&#xa5;" horiz-adv-x="842" 
d="M847 700l-236 -354h105v-110h-170v-40h170v-110h-170v-86h-250v86h-170v110h170v40h-170v110h105l-236 354h285l95 -167q23 -41 29.5 -75.5t6.5 -77.5v-20h20v20q0 43 6.5 77.5t29.5 75.5l95 167h285z" />
    <glyph glyph-name="brokenbar" unicode="&#xa6;" horiz-adv-x="370" 
d="M295 330h-220v410h220v-410zM295 -210h-220v410h220v-410z" />
    <glyph glyph-name="section" unicode="&#xa7;" horiz-adv-x="778" 
d="M151.5 -137q-76.5 57 -76.5 158v12h215v-7q0 -32 23.5 -48.5t80.5 -16.5q104 0 104 48q0 22 -27 35t-99 13q-178 0 -255 50t-77 139q0 69 41.5 112t124.5 51v20q-73 7 -104.5 37.5t-31.5 83.5q0 74 74 119t245 45q166 0 242.5 -57t76.5 -158v-12h-215v7q0 32 -23.5 48.5
t-80.5 16.5q-104 0 -104 -48q0 -22 27 -35t99 -13q178 0 255 -50t77 -139q0 -69 -41.5 -112t-124.5 -51v-20q73 -7 104.5 -37.5t31.5 -83.5q0 -74 -74 -119t-245 -45q-166 0 -242.5 57zM499 221q29 14 29 39t-29.5 39t-107.5 14t-107 -14t-29 -39t29.5 -39t107.5 -14t107 14
z" />
    <glyph glyph-name="dieresis" unicode="&#xa8;" horiz-adv-x="530" 
d="M58.5 605.5q-28.5 25.5 -28.5 64.5t28.5 64.5t76.5 25.5t76.5 -25.5t28.5 -64.5t-28.5 -64.5t-76.5 -25.5t-76.5 25.5zM318.5 605.5q-28.5 25.5 -28.5 64.5t28.5 64.5t76.5 25.5t76.5 -25.5t28.5 -64.5t-28.5 -64.5t-76.5 -25.5t-76.5 25.5z" />
    <glyph glyph-name="copyright" unicode="&#xa9;" horiz-adv-x="938" 
d="M243 33.5q-96 47.5 -147 130t-51 186.5t51 186.5t147 130t226 47.5t226 -47.5t147 -130t51 -186.5t-51 -186.5t-147 -130t-226 -47.5t-226 47.5zM627.5 138.5q66.5 32.5 101 88t34.5 123.5t-34.5 123.5t-101 88t-158.5 32.5t-158.5 -32.5t-101 -88t-34.5 -123.5
t34.5 -123.5t101 -88t158.5 -32.5t158.5 32.5zM356.5 202.5q-47.5 22.5 -72.5 61.5t-25 86t25 86t72.5 61.5t112.5 22.5q64 0 109.5 -20t70.5 -53t30 -72h-140q-5 10 -21.5 17.5t-48.5 7.5q-33 0 -51.5 -14.5t-18.5 -35.5t18.5 -35.5t51.5 -14.5q32 0 48.5 7.5t21.5 17.5
h140q-5 -39 -30 -72t-70.5 -53t-109.5 -20q-65 0 -112.5 22.5z" />
    <glyph glyph-name="ordfeminine" unicode="&#xaa;" horiz-adv-x="552" 
d="M67 345q-42 31 -42 84t40 84t128 31q81 0 159 -35v17q0 32 -24 52.5t-67 20.5q-63 0 -81 -35h-165q8 65 70 107.5t176 42.5q119 0 182.5 -53.5t63.5 -140.5v-50q0 -21 18 -21q8 0 17 4v-130q-32 -9 -64 -9q-49 0 -74.5 21.5t-25.5 55.5h-15v-2q0 -30 -40 -52.5
t-125 -22.5q-89 0 -131 31zM352 426v26q-44 12 -100 12q-35 0 -48.5 -6.5t-13.5 -18.5t13.5 -18.5t48.5 -6.5q51 0 100 12z" />
    <glyph glyph-name="guillemotleft" unicode="&#xab;" horiz-adv-x="649" 
d="M369 60h-190l-169 196l169 194h190l-174 -194zM629 60h-190l-169 196l169 194h190l-174 -194z" />
    <glyph glyph-name="logicalnot" unicode="&#xac;" horiz-adv-x="625" 
d="M575 190h-190v110h-345v170h535v-280z" />
    <glyph glyph-name="uni00AD" unicode="&#xad;" horiz-adv-x="535" 
d="M500 227l-465 -107v180l465 107v-180z" />
    <glyph glyph-name="registered" unicode="&#xae;" horiz-adv-x="550" 
d="M408.5 686.5q56.5 -27.5 86.5 -76.5t30 -110t-30 -110t-86.5 -76.5t-133.5 -27.5t-133.5 27.5t-86.5 76.5t-30 110t30 110t86.5 76.5t133.5 27.5t133.5 -27.5zM400 396q45 40 45 104t-45 104t-125 40t-125 -40t-45 -104t45 -104t125 -40t125 40zM351 468l41 -67h-90
l-31 57h-21v-57h-80v198h126q91 0 91 -72q0 -43 -36 -59zM245 539v-36h38q24 0 24 18q0 8 -6 13t-18 5h-38z" />
    <glyph glyph-name="macron" unicode="&#xaf;" horiz-adv-x="520" 
d="M490 590h-460v155h460v-155z" />
    <glyph glyph-name="degree" unicode="&#xb0;" horiz-adv-x="440" 
d="M114.5 387q-45.5 23 -70 63t-24.5 89t24.5 89t70 63t105.5 23t105.5 -23t70 -63t24.5 -89t-24.5 -89t-70 -63t-105.5 -23t-105.5 23zM260 503q15 14 15 36t-15 36t-40 14t-40 -14t-15 -36t15 -36t40 -14t40 14z" />
    <glyph glyph-name="plusminus" unicode="&#xb1;" horiz-adv-x="610" 
d="M565 475v-150h-180v-125h180v-150h-520v150h180v125h-180v150h180v150h160v-150h180z" />
    <glyph glyph-name="uni00B2" unicode="&#xb2;" horiz-adv-x="485" 
d="M433 611q-32 -28 -73.5 -39t-102.5 -20q-33 -5 -49 -8.5t-21 -9.5h268v-110h-420v93q0 47 28 72t65.5 34t94.5 15q46 5 66.5 10.5t20.5 20.5q0 13 -13 19.5t-49 6.5t-49.5 -8t-13.5 -24v-3h-155v7q0 67 52 105t166 38q113 0 165 -34t52 -88q0 -49 -32 -77z" />
    <glyph glyph-name="uni00B3" unicode="&#xb3;" horiz-adv-x="461" 
d="M343 645q103 -20 103 -107q0 -58 -51.5 -93t-161.5 -35q-213 0 -213 141v5h145v-2q0 -34 68 -34q38 0 53 7.5t15 21.5q0 29 -62 29h-79v65l151 63v15q-75 -40 -175 -40h-101v115h391v-120z" />
    <glyph glyph-name="acute" unicode="&#xb4;" horiz-adv-x="400" 
d="M230 570h-200l90 180h250z" />
    <glyph glyph-name="uni00B5" unicode="&#xb5;" horiz-adv-x="788" 
d="M513 510h220v-510h-220l30 145h-20q-20 -84 -58.5 -121.5t-105.5 -37.5q-28 0 -54.5 7.5t-44.5 19.5v-203h-210v700h220v-208q0 -62 32.5 -96.5t89.5 -34.5q56 0 88.5 34.5t32.5 96.5v208z" />
    <glyph glyph-name="paragraph" unicode="&#xb6;" horiz-adv-x="710" 
d="M220 300q-90 0 -145 55t-55 145t55 145t145 55h475v-140h-75v-770h-160v770h-80v-770h-160v510z" />
    <glyph glyph-name="periodcentered" unicode="&#xb7;" horiz-adv-x="260" 
d="M42 192.5q-34 32.5 -34 82.5t34 82.5t88 32.5q55 0 89 -32.5t34 -82.5t-34 -82.5t-89 -32.5q-54 0 -88 32.5z" />
    <glyph glyph-name="cedilla" unicode="&#xb8;" horiz-adv-x="400" 
d="M184 -45q99 -2 142.5 -30t43.5 -72q0 -50 -43.5 -79t-141.5 -29q-89 0 -155 32v100q62 -27 142 -27q37 0 50 5t13 15t-13.5 15t-54.5 5h-87v65l64 66h106z" />
    <glyph glyph-name="uni00B9" unicode="&#xb9;" horiz-adv-x="425" 
d="M305 539h115v-115h-390v115h130v5q0 42 11 74.5t39 87.5h-15q-25 -58 -58 -86t-82 -28v120h20q100 0 100 81v3h130v-257z" />
    <glyph glyph-name="ordmasculine" unicode="&#xba;" horiz-adv-x="556" 
d="M135 340.5q-59 26.5 -89.5 72t-30.5 101.5t30.5 101.5t89.5 72t143 26.5t143 -26.5t89.5 -72t30.5 -101.5t-30.5 -101.5t-89.5 -72t-143 -26.5t-143 26.5zM347 463.5q24 19.5 24 50.5t-24 50.5t-69 19.5t-69 -19.5t-24 -50.5t24 -50.5t69 -19.5t69 19.5z" />
    <glyph glyph-name="guillemotright" unicode="&#xbb;" horiz-adv-x="649" 
d="M210 60h-190l174 196l-174 194h190l169 -194zM470 60h-190l174 196l-174 194h190l169 -194z" />
    <glyph glyph-name="onequarter" unicode="&#xbc;" horiz-adv-x="1155" 
d="M305 443h115v-115h-390v115h130v5q0 42 11 74.5t39 87.5h-15q-25 -58 -58 -86t-82 -28v120h20q100 0 100 81v3h130v-257zM440 0h-165l520 700h165zM1085 158h65v-105h-65v-53h-145v53h-230v100l165 219h210v-214zM865 173v-15h85v46q0 37 6.5 63.5t19.5 54.5h-15
q-6 -25 -16.5 -43.5t-29.5 -42.5z" />
    <glyph glyph-name="onehalf" unicode="&#xbd;" horiz-adv-x="1205" 
d="M305 443h115v-115h-390v115h130v5q0 42 11 74.5t39 87.5h-15q-25 -58 -58 -86t-82 -28v120h20q100 0 100 81v3h130v-257zM440 0h-165l520 700h165zM1153 187q-32 -28 -73.5 -39t-102.5 -20q-33 -5 -49 -8.5t-21 -9.5h268v-110h-420v93q0 47 28 72t65.5 34t94.5 15
q46 5 66.5 10.5t20.5 20.5q0 13 -13 19.5t-49 6.5t-49.5 -8t-13.5 -24v-3h-155v7q0 67 52 105t166 38q113 0 165 -34t52 -88q0 -49 -32 -77z" />
    <glyph glyph-name="threequarters" unicode="&#xbe;" horiz-adv-x="1131" 
d="M343 549q103 -20 103 -107q0 -58 -51.5 -93t-161.5 -35q-213 0 -213 141v5h145v-2q0 -34 68 -34q38 0 53 7.5t15 21.5q0 29 -62 29h-79v65l151 63v15q-75 -40 -175 -40h-101v115h391v-120zM416 0h-165l520 700h165zM1061 158h65v-105h-65v-53h-145v53h-230v100l165 219
h210v-214zM841 173v-15h85v46q0 37 6.5 63.5t19.5 54.5h-15q-6 -25 -16.5 -43.5t-29.5 -42.5z" />
    <glyph glyph-name="questiondown" unicode="&#xbf;" horiz-adv-x="745" 
d="M294 326.5q-34 32.5 -34 82.5t34 82.5t89 32.5q54 0 88 -32.5t34 -82.5t-34 -82.5t-88 -32.5q-55 0 -89 32.5zM95 -149q-85 55 -85 147q0 60 25 97.5t59 56t85 35.5q44 15 63.5 27t19.5 34v6h240v-21q0 -51 -25.5 -82.5t-60 -47t-86.5 -30.5q-41 -11 -60.5 -21t-19.5 -26
q0 -19 23.5 -29.5t88.5 -10.5q128 0 128 68v4h240v-9q0 -253 -360 -253q-190 0 -275 55z" />
    <glyph glyph-name="Agrave" unicode="&#xc0;" horiz-adv-x="904" 
d="M904 0h-265l-34 90h-306l-34 -90h-265l304 700h296zM371 280h162l-29 77q-25 64 -33.5 105t-8.5 83v5h-20v-5q0 -42 -8.5 -83t-33.5 -105zM592 760h-220l-170 190h280z" />
    <glyph glyph-name="Aacute" unicode="&#xc1;" horiz-adv-x="904" 
d="M904 0h-265l-34 90h-306l-34 -90h-265l304 700h296zM371 280h162l-29 77q-25 64 -33.5 105t-8.5 83v5h-20v-5q0 -42 -8.5 -83t-33.5 -105zM532 760h-220l110 190h280z" />
    <glyph glyph-name="Acircumflex" unicode="&#xc2;" horiz-adv-x="904" 
d="M904 0h-265l-34 90h-306l-34 -90h-265l304 700h296zM371 280h162l-29 77q-25 64 -33.5 105t-8.5 83v5h-20v-5q0 -42 -8.5 -83t-33.5 -105zM552 950l185 -190h-225l-60 70l-60 -70h-225l185 190h200z" />
    <glyph glyph-name="Atilde" unicode="&#xc3;" horiz-adv-x="904" 
d="M904 0h-265l-34 90h-306l-34 -90h-265l304 700h296zM371 280h162l-29 77q-25 64 -33.5 105t-8.5 83v5h-20v-5q0 -42 -8.5 -83t-33.5 -105zM207 755q-15 56 -15 90q0 57 30.5 88.5t85.5 31.5q41 0 75 -10t75 -27q16 -7 31 -12.5t24 -5.5q24 0 24 22q0 10 -5 33h165
q15 -56 15 -90q0 -57 -30.5 -88.5t-85.5 -31.5q-41 0 -75 10t-75 27q-16 7 -31 12.5t-24 5.5q-24 0 -24 -22q0 -10 5 -33h-165z" />
    <glyph glyph-name="Adieresis" unicode="&#xc4;" horiz-adv-x="904" 
d="M904 0h-265l-34 90h-306l-34 -90h-265l304 700h296zM371 280h162l-29 77q-25 64 -33.5 105t-8.5 83v5h-20v-5q0 -42 -8.5 -83t-33.5 -105zM209 788q-32 28 -32 72t32 72t88 28t88 -28t32 -72t-32 -72t-88 -28t-88 28zM519 788q-32 28 -32 72t32 72t88 28t88 -28t32 -72
t-32 -72t-88 -28t-88 28z" />
    <glyph glyph-name="Aring" unicode="&#xc5;" horiz-adv-x="904" 
d="M904 0h-265l-34 90h-306l-34 -90h-265l304 700h296zM371 280h162l-29 77q-25 64 -33.5 105t-8.5 83v5h-20v-5q0 -42 -8.5 -83t-33.5 -105zM318.5 778q-46.5 38 -46.5 97t46.5 97t133.5 38t133.5 -38t46.5 -97t-46.5 -97t-133.5 -38t-133.5 38zM497 850q15 10 15 25
t-15 25t-45 10t-45 -10t-15 -25t15 -25t45 -10t45 10z" />
    <glyph glyph-name="AE" unicode="&#xc6;" horiz-adv-x="1307" 
d="M1262 700v-190h-440v-72h370v-165h-370v-83h440v-190h-680v95h-264l-63 -95h-285l477 700h815zM437 275h145v235h-20q-11 -44 -26.5 -76.5t-45.5 -78.5z" />
    <glyph glyph-name="Ccedilla" unicode="&#xc7;" horiz-adv-x="1006" 
d="M623 201q47 15 72 37.5t31 46.5h250q-12 -81 -63 -146t-142 -105.5t-217 -46.5l-32 -32q99 -2 142.5 -30t43.5 -72q0 -50 -43.5 -79t-141.5 -29q-89 0 -155 32v100q62 -27 142 -27q37 0 50 5t13 15t-13.5 15t-54.5 5h-87v65l32 33q-132 9 -224.5 58t-139 128t-46.5 176
q0 104 53.5 186.5t159 130t255.5 47.5q140 0 241.5 -39t158 -106.5t68.5 -153.5h-250q-6 24 -31 46.5t-72 37.5t-115 15q-105 0 -161.5 -46t-56.5 -118t56.5 -118t161.5 -46q68 0 115 15z" />
    <glyph glyph-name="Egrave" unicode="&#xc8;" horiz-adv-x="830" 
d="M785 700v-190h-470v-72h400v-165h-400v-83h470v-190h-720v700h720zM565 760h-220l-170 190h280z" />
    <glyph glyph-name="Eacute" unicode="&#xc9;" horiz-adv-x="830" 
d="M785 700v-190h-470v-72h400v-165h-400v-83h470v-190h-720v700h720zM505 760h-220l110 190h280z" />
    <glyph glyph-name="Ecircumflex" unicode="&#xca;" horiz-adv-x="830" 
d="M785 700v-190h-470v-72h400v-165h-400v-83h470v-190h-720v700h720zM525 950l185 -190h-225l-60 70l-60 -70h-225l185 190h200z" />
    <glyph glyph-name="Edieresis" unicode="&#xcb;" horiz-adv-x="830" 
d="M785 700v-190h-470v-72h400v-165h-400v-83h470v-190h-720v700h720zM182 788q-32 28 -32 72t32 72t88 28t88 -28t32 -72t-32 -72t-88 -28t-88 28zM492 788q-32 28 -32 72t32 72t88 28t88 -28t32 -72t-32 -72t-88 -28t-88 28z" />
    <glyph glyph-name="Igrave" unicode="&#xcc;" horiz-adv-x="730" 
d="M685 0h-640v195h195v310h-195v195h640v-195h-195v-310h195v-195zM505 760h-220l-170 190h280z" />
    <glyph glyph-name="Iacute" unicode="&#xcd;" horiz-adv-x="730" 
d="M685 0h-640v195h195v310h-195v195h640v-195h-195v-310h195v-195zM445 760h-220l110 190h280z" />
    <glyph glyph-name="Icircumflex" unicode="&#xce;" horiz-adv-x="730" 
d="M685 0h-640v195h195v310h-195v195h640v-195h-195v-310h195v-195zM465 950l185 -190h-225l-60 70l-60 -70h-225l185 190h200z" />
    <glyph glyph-name="Idieresis" unicode="&#xcf;" horiz-adv-x="730" 
d="M685 0h-640v195h195v310h-195v195h640v-195h-195v-310h195v-195zM122 788q-32 28 -32 72t32 72t88 28t88 -28t32 -72t-32 -72t-88 -28t-88 28zM432 788q-32 28 -32 72t32 72t88 28t88 -28t32 -72t-32 -72t-88 -28t-88 28z" />
    <glyph glyph-name="Eth" unicode="&#xd0;" horiz-adv-x="945" 
d="M465 700q141 0 240 -45t149.5 -124t50.5 -181t-50.5 -181t-149.5 -124t-240 -45h-370v267h-110v165h110v268h370zM465 200q93 0 141.5 41t48.5 109t-48.5 109t-141.5 41h-120v-68h150v-165h-150v-67h120z" />
    <glyph glyph-name="Ntilde" unicode="&#xd1;" horiz-adv-x="970" 
d="M65 0v700h388l227 -550h20q-17 45 -26 96.5t-9 123.5v330h240v-700h-388l-227 550h-20q17 -45 26 -96.5t9 -123.5v-330h-240zM260 755q-15 56 -15 90q0 57 30.5 88.5t85.5 31.5q41 0 75 -10t75 -27q16 -7 31 -12.5t24 -5.5q24 0 24 22q0 10 -5 33h165q15 -56 15 -90
q0 -57 -30.5 -88.5t-85.5 -31.5q-41 0 -75 10t-75 27q-16 7 -31 12.5t-24 5.5q-24 0 -24 -22q0 -10 5 -33h-165z" />
    <glyph glyph-name="Ograve" unicode="&#xd2;" horiz-adv-x="1030" 
d="M255 33.5q-107 47.5 -161 130t-54 186.5t54 186.5t161 130t260 47.5t260 -47.5t161 -130t54 -186.5t-54 -186.5t-161 -130t-260 -47.5t-260 47.5zM682.5 231.5q57.5 45.5 57.5 118.5t-57.5 118.5t-167.5 45.5t-167.5 -45.5t-57.5 -118.5t57.5 -118.5t167.5 -45.5
t167.5 45.5zM655 760h-220l-170 190h280z" />
    <glyph glyph-name="Oacute" unicode="&#xd3;" horiz-adv-x="1030" 
d="M255 33.5q-107 47.5 -161 130t-54 186.5t54 186.5t161 130t260 47.5t260 -47.5t161 -130t54 -186.5t-54 -186.5t-161 -130t-260 -47.5t-260 47.5zM682.5 231.5q57.5 45.5 57.5 118.5t-57.5 118.5t-167.5 45.5t-167.5 -45.5t-57.5 -118.5t57.5 -118.5t167.5 -45.5
t167.5 45.5zM595 760h-220l110 190h280z" />
    <glyph glyph-name="Ocircumflex" unicode="&#xd4;" horiz-adv-x="1030" 
d="M255 33.5q-107 47.5 -161 130t-54 186.5t54 186.5t161 130t260 47.5t260 -47.5t161 -130t54 -186.5t-54 -186.5t-161 -130t-260 -47.5t-260 47.5zM682.5 231.5q57.5 45.5 57.5 118.5t-57.5 118.5t-167.5 45.5t-167.5 -45.5t-57.5 -118.5t57.5 -118.5t167.5 -45.5
t167.5 45.5zM615 950l185 -190h-225l-60 70l-60 -70h-225l185 190h200z" />
    <glyph glyph-name="Otilde" unicode="&#xd5;" horiz-adv-x="1030" 
d="M255 33.5q-107 47.5 -161 130t-54 186.5t54 186.5t161 130t260 47.5t260 -47.5t161 -130t54 -186.5t-54 -186.5t-161 -130t-260 -47.5t-260 47.5zM682.5 231.5q57.5 45.5 57.5 118.5t-57.5 118.5t-167.5 45.5t-167.5 -45.5t-57.5 -118.5t57.5 -118.5t167.5 -45.5
t167.5 45.5zM270 755q-15 56 -15 90q0 57 30.5 88.5t85.5 31.5q41 0 75 -10t75 -27q16 -7 31 -12.5t24 -5.5q24 0 24 22q0 10 -5 33h165q15 -56 15 -90q0 -57 -30.5 -88.5t-85.5 -31.5q-41 0 -75 10t-75 27q-16 7 -31 12.5t-24 5.5q-24 0 -24 -22q0 -10 5 -33h-165z" />
    <glyph glyph-name="Odieresis" unicode="&#xd6;" horiz-adv-x="1030" 
d="M255 33.5q-107 47.5 -161 130t-54 186.5t54 186.5t161 130t260 47.5t260 -47.5t161 -130t54 -186.5t-54 -186.5t-161 -130t-260 -47.5t-260 47.5zM682.5 231.5q57.5 45.5 57.5 118.5t-57.5 118.5t-167.5 45.5t-167.5 -45.5t-57.5 -118.5t57.5 -118.5t167.5 -45.5
t167.5 45.5zM272 788q-32 28 -32 72t32 72t88 28t88 -28t32 -72t-32 -72t-88 -28t-88 28zM582 788q-32 28 -32 72t32 72t88 28t88 -28t32 -72t-32 -72t-88 -28t-88 28z" />
    <glyph glyph-name="multiply" unicode="&#xd7;" horiz-adv-x="556" 
d="M410 593l111 -111l-132 -132l132 -132l-111 -111l-132 132l-132 -132l-111 111l132 132l-132 132l111 111l132 -132z" />
    <glyph glyph-name="Oslash" unicode="&#xd8;" horiz-adv-x="1030" 
d="M990 590l-59 -46q59 -85 59 -194q0 -104 -54 -186.5t-161 -130t-260 -47.5q-166 0 -278 56l-73 -56l-124 124l59 46q-59 85 -59 194q0 104 54 186.5t161 130t260 47.5q166 0 278 -56l73 56zM386 501q-53 -23 -79.5 -62.5t-26.5 -88.5q0 -36 15 -68l321 229
q-47 13 -101 13q-76 0 -129 -23zM644 199q53 23 79.5 62.5t26.5 88.5q0 37 -15 68l-321 -229q47 -13 101 -13q76 0 129 23z" />
    <glyph glyph-name="Ugrave" unicode="&#xd9;" horiz-adv-x="935" 
d="M159.5 78.5q-104.5 92.5 -104.5 259.5v362h250v-339q0 -78 41.5 -119t121.5 -41q79 0 120.5 41t41.5 119v339h250v-362q0 -166 -104 -259t-308 -93t-308.5 92.5zM608 760h-220l-170 190h280z" />
    <glyph glyph-name="Uacute" unicode="&#xda;" horiz-adv-x="935" 
d="M159.5 78.5q-104.5 92.5 -104.5 259.5v362h250v-339q0 -78 41.5 -119t121.5 -41q79 0 120.5 41t41.5 119v339h250v-362q0 -166 -104 -259t-308 -93t-308.5 92.5zM548 760h-220l110 190h280z" />
    <glyph glyph-name="Ucircumflex" unicode="&#xdb;" horiz-adv-x="935" 
d="M159.5 78.5q-104.5 92.5 -104.5 259.5v362h250v-339q0 -78 41.5 -119t121.5 -41q79 0 120.5 41t41.5 119v339h250v-362q0 -166 -104 -259t-308 -93t-308.5 92.5zM568 950l185 -190h-225l-60 70l-60 -70h-225l185 190h200z" />
    <glyph glyph-name="Udieresis" unicode="&#xdc;" horiz-adv-x="935" 
d="M159.5 78.5q-104.5 92.5 -104.5 259.5v362h250v-339q0 -78 41.5 -119t121.5 -41q79 0 120.5 41t41.5 119v339h250v-362q0 -166 -104 -259t-308 -93t-308.5 92.5zM225 788q-32 28 -32 72t32 72t88 28t88 -28t32 -72t-32 -72t-88 -28t-88 28zM535 788q-32 28 -32 72t32 72
t88 28t88 -28t32 -72t-32 -72t-88 -28t-88 28z" />
    <glyph glyph-name="Yacute" unicode="&#xdd;" horiz-adv-x="842" 
d="M296 0v208l-301 492h285l90 -167q24 -43 32.5 -79.5t8.5 -73.5v-20h20v20q0 37 8.5 73.5t32.5 79.5l90 167h285l-301 -492v-208h-250zM501 760h-220l110 190h280z" />
    <glyph glyph-name="Thorn" unicode="&#xde;" horiz-adv-x="880" 
d="M546 605q153 0 231 -66.5t78 -183.5t-78 -183.5t-231 -66.5h-231v-105h-250v700h250v-95h231zM531 300q74 0 74 55t-74 55h-231v-110h231z" />
    <glyph glyph-name="germandbls" unicode="&#xdf;" horiz-adv-x="802" 
d="M575 369q105 -1 158.5 -47t53.5 -124q0 -89 -64 -143.5t-185 -54.5h-183v170h143q29 0 46.5 16t17.5 41t-17.5 41t-46.5 16h-113v150h31q116 0 116 55t-121 55q-75 0 -105.5 -24.5t-30.5 -77.5v-442h-220v430q0 284 356 284q183 0 264.5 -50.5t81.5 -132.5
q0 -63 -46.5 -102t-135.5 -40v-20z" />
    <glyph glyph-name="agrave" unicode="&#xe0;" horiz-adv-x="770" 
d="M92 28q-57 42 -57 113q0 70 57 112t176 42q78 0 127.5 -12t99.5 -35v23q0 40 -34 66.5t-98 26.5q-99 0 -123 -49h-220q11 93 96.5 151t248.5 58q114 0 191.5 -33t115.5 -92t38 -136v-68q0 -16 6.5 -22.5t20.5 -6.5q12 0 23 4v-170q-39 -14 -87 -14q-71 0 -107 28.5
t-36 75.5h-20v-3q0 -41 -57 -71t-185 -30q-119 0 -176 42zM495 143v20q-62 17 -141 17q-56 0 -75 -7t-19 -20t19 -20t75 -7q79 0 141 17zM505 570h-200l-140 180h250z" />
    <glyph glyph-name="aacute" unicode="&#xe1;" horiz-adv-x="770" 
d="M92 28q-57 42 -57 113q0 70 57 112t176 42q78 0 127.5 -12t99.5 -35v23q0 40 -34 66.5t-98 26.5q-99 0 -123 -49h-220q11 93 96.5 151t248.5 58q114 0 191.5 -33t115.5 -92t38 -136v-68q0 -16 6.5 -22.5t20.5 -6.5q12 0 23 4v-170q-39 -14 -87 -14q-71 0 -107 28.5
t-36 75.5h-20v-3q0 -41 -57 -71t-185 -30q-119 0 -176 42zM495 143v20q-62 17 -141 17q-56 0 -75 -7t-19 -20t19 -20t75 -7q79 0 141 17zM455 570h-200l90 180h250z" />
    <glyph glyph-name="acircumflex" unicode="&#xe2;" horiz-adv-x="770" 
d="M92 28q-57 42 -57 113q0 70 57 112t176 42q78 0 127.5 -12t99.5 -35v23q0 40 -34 66.5t-98 26.5q-99 0 -123 -49h-220q11 93 96.5 151t248.5 58q114 0 191.5 -33t115.5 -92t38 -136v-68q0 -16 6.5 -22.5t20.5 -6.5q12 0 23 4v-170q-39 -14 -87 -14q-71 0 -107 28.5
t-36 75.5h-20v-3q0 -41 -57 -71t-185 -30q-119 0 -176 42zM495 143v20q-62 17 -141 17q-56 0 -75 -7t-19 -20t19 -20t75 -7q79 0 141 17zM465 750l170 -180h-200l-55 62l-55 -62h-200l170 180h170z" />
    <glyph glyph-name="atilde" unicode="&#xe3;" horiz-adv-x="770" 
d="M92 28q-57 42 -57 113q0 70 57 112t176 42q78 0 127.5 -12t99.5 -35v23q0 40 -34 66.5t-98 26.5q-99 0 -123 -49h-220q11 93 96.5 151t248.5 58q114 0 191.5 -33t115.5 -92t38 -136v-68q0 -16 6.5 -22.5t20.5 -6.5q12 0 23 4v-170q-39 -14 -87 -14q-71 0 -107 28.5
t-36 75.5h-20v-3q0 -41 -57 -71t-185 -30q-119 0 -176 42zM495 143v20q-62 17 -141 17q-56 0 -75 -7t-19 -20t19 -20t75 -7q79 0 141 17zM150 565q-15 42 -15 80q0 56 28.5 85.5t82.5 29.5q28 0 54 -8t67 -25q49 -22 71 -22q13 0 20 6.5t7 17.5t-5 31h150q15 -42 15 -80
q0 -56 -28.5 -85.5t-82.5 -29.5q-28 0 -54 8t-67 25q-50 22 -71 22q-13 0 -20 -6.5t-7 -17.5t5 -31h-150z" />
    <glyph glyph-name="adieresis" unicode="&#xe4;" horiz-adv-x="770" 
d="M92 28q-57 42 -57 113q0 70 57 112t176 42q78 0 127.5 -12t99.5 -35v23q0 40 -34 66.5t-98 26.5q-99 0 -123 -49h-220q11 93 96.5 151t248.5 58q114 0 191.5 -33t115.5 -92t38 -136v-68q0 -16 6.5 -22.5t20.5 -6.5q12 0 23 4v-170q-39 -14 -87 -14q-71 0 -107 28.5
t-36 75.5h-20v-3q0 -41 -57 -71t-185 -30q-119 0 -176 42zM495 143v20q-62 17 -141 17q-56 0 -75 -7t-19 -20t19 -20t75 -7q79 0 141 17zM173.5 605.5q-28.5 25.5 -28.5 64.5t28.5 64.5t76.5 25.5t76.5 -25.5t28.5 -64.5t-28.5 -64.5t-76.5 -25.5t-76.5 25.5zM433.5 605.5
q-28.5 25.5 -28.5 64.5t28.5 64.5t76.5 25.5t76.5 -25.5t28.5 -64.5t-28.5 -64.5t-76.5 -25.5t-76.5 25.5z" />
    <glyph glyph-name="aring" unicode="&#xe5;" horiz-adv-x="770" 
d="M92 28q-57 42 -57 113q0 70 57 112t176 42q78 0 127.5 -12t99.5 -35v23q0 40 -34 66.5t-98 26.5q-99 0 -123 -49h-220q11 93 96.5 151t248.5 58q114 0 191.5 -33t115.5 -92t38 -136v-68q0 -16 6.5 -22.5t20.5 -6.5q12 0 23 4v-170q-39 -14 -87 -14q-71 0 -107 28.5
t-36 75.5h-20v-3q0 -41 -57 -71t-185 -30q-119 0 -176 42zM495 143v20q-62 17 -141 17q-56 0 -75 -7t-19 -20t19 -20t75 -7q79 0 141 17zM258.5 592q-43.5 37 -43.5 93t43.5 93t121.5 37t121.5 -37t43.5 -93t-43.5 -93t-121.5 -37t-121.5 37zM421 660q14 10 14 25t-14 25
t-41 10t-41 -10t-14 -25t14 -25t41 -10t41 10z" />
    <glyph glyph-name="ae" unicode="&#xe6;" horiz-adv-x="1200" 
d="M1166 205h-482q14 -33 48.5 -51t89.5 -18q56 0 84 10t45 29h210q-14 -44 -53 -87t-107.5 -72.5t-163.5 -29.5q-160 0 -247 83q-51 -43 -122 -63t-175 -20q-136 0 -197 41.5t-61 113.5q0 70 55 112t168 42q89 0 133.5 -10.5t93.5 -36.5v23q0 43 -33 70.5t-94 27.5
q-96 0 -118 -54h-220q11 92 93 150.5t232 58.5q76 0 132 -20t102 -64q85 84 251 84q105 0 182 -36.5t117.5 -98.5t40.5 -137q0 -18 -4 -47zM684 305h277q-29 69 -140 69q-108 0 -137 -69zM485 168q-62 17 -136 17q-52 0 -70.5 -8t-18.5 -22q0 -13 19 -21t70 -8q74 0 136 17
v25z" />
    <glyph glyph-name="ccedilla" unicode="&#xe7;" horiz-adv-x="762" 
d="M479.5 174.5q34.5 18.5 42.5 45.5h220q-7 -65 -48.5 -116.5t-112.5 -82t-164 -34.5l-32 -32q99 -2 142.5 -30t43.5 -72q0 -50 -43.5 -79t-141.5 -29q-89 0 -155 32v100q62 -27 142 -27q37 0 50 5t13 15t-13.5 15t-54.5 5h-87v65l34 35q-91 11 -155 49t-97 94t-33 122
q0 74 41 135.5t121.5 97.5t193.5 36q101 0 179 -29.5t124 -82.5t53 -122h-220q-8 27 -42.5 45.5t-93.5 18.5q-64 0 -100 -29t-36 -70t36 -70t100 -29q59 0 93.5 18.5z" />
    <glyph glyph-name="egrave" unicode="&#xe8;" horiz-adv-x="780" 
d="M746 200h-502q34 -59 147 -59q59 0 88.5 8t51.5 21h210q-15 -42 -55.5 -84t-115.5 -71t-183 -29q-113 0 -193.5 36t-122 97t-41.5 136t41.5 136t123 97t195.5 36q115 0 196 -36t122.5 -98t41.5 -138q0 -23 -4 -52zM244 310h292q-34 59 -146 59t-146 -59zM515 570h-200
l-140 180h250z" />
    <glyph glyph-name="eacute" unicode="&#xe9;" horiz-adv-x="780" 
d="M746 200h-502q34 -59 147 -59q59 0 88.5 8t51.5 21h210q-15 -42 -55.5 -84t-115.5 -71t-183 -29q-113 0 -193.5 36t-122 97t-41.5 136t41.5 136t123 97t195.5 36q115 0 196 -36t122.5 -98t41.5 -138q0 -23 -4 -52zM244 310h292q-34 59 -146 59t-146 -59zM465 570h-200
l90 180h250z" />
    <glyph glyph-name="ecircumflex" unicode="&#xea;" horiz-adv-x="780" 
d="M746 200h-502q34 -59 147 -59q59 0 88.5 8t51.5 21h210q-15 -42 -55.5 -84t-115.5 -71t-183 -29q-113 0 -193.5 36t-122 97t-41.5 136t41.5 136t123 97t195.5 36q115 0 196 -36t122.5 -98t41.5 -138q0 -23 -4 -52zM244 310h292q-34 59 -146 59t-146 -59zM475 750
l170 -180h-200l-55 62l-55 -62h-200l170 180h170z" />
    <glyph glyph-name="edieresis" unicode="&#xeb;" horiz-adv-x="780" 
d="M746 200h-502q34 -59 147 -59q59 0 88.5 8t51.5 21h210q-15 -42 -55.5 -84t-115.5 -71t-183 -29q-113 0 -193.5 36t-122 97t-41.5 136t41.5 136t123 97t195.5 36q115 0 196 -36t122.5 -98t41.5 -138q0 -23 -4 -52zM244 310h292q-34 59 -146 59t-146 -59zM183.5 605.5
q-28.5 25.5 -28.5 64.5t28.5 64.5t76.5 25.5t76.5 -25.5t28.5 -64.5t-28.5 -64.5t-76.5 -25.5t-76.5 25.5zM443.5 605.5q-28.5 25.5 -28.5 64.5t28.5 64.5t76.5 25.5t76.5 -25.5t28.5 -64.5t-28.5 -64.5t-76.5 -25.5t-76.5 25.5z" />
    <glyph glyph-name="igrave" unicode="&#xec;" horiz-adv-x="550" 
d="M400 180h140v-180h-515v180h165v108q0 26 -10.5 36t-36.5 10q-25 0 -48 -10v180q47 20 124 20q70 0 109 -15t55.5 -47.5t16.5 -89.5v-192zM393 570h-200l-140 180h250z" />
    <glyph glyph-name="iacute" unicode="&#xed;" horiz-adv-x="550" 
d="M400 180h140v-180h-515v180h165v108q0 26 -10.5 36t-36.5 10q-25 0 -48 -10v180q47 20 124 20q70 0 109 -15t55.5 -47.5t16.5 -89.5v-192zM343 570h-200l90 180h250z" />
    <glyph glyph-name="icircumflex" unicode="&#xee;" horiz-adv-x="550" 
d="M400 180h140v-180h-515v180h165v108q0 26 -10.5 36t-36.5 10q-25 0 -48 -10v180q47 20 124 20q70 0 109 -15t55.5 -47.5t16.5 -89.5v-192zM353 750l170 -180h-200l-55 62l-55 -62h-200l170 180h170z" />
    <glyph glyph-name="idieresis" unicode="&#xef;" horiz-adv-x="550" 
d="M400 180h140v-180h-515v180h165v108q0 26 -10.5 36t-36.5 10q-25 0 -48 -10v180q47 20 124 20q70 0 109 -15t55.5 -47.5t16.5 -89.5v-192zM61.5 605.5q-28.5 25.5 -28.5 64.5t28.5 64.5t76.5 25.5t76.5 -25.5t28.5 -64.5t-28.5 -64.5t-76.5 -25.5t-76.5 25.5z
M321.5 605.5q-28.5 25.5 -28.5 64.5t28.5 64.5t76.5 25.5t76.5 -25.5t28.5 -64.5t-28.5 -64.5t-76.5 -25.5t-76.5 25.5z" />
    <glyph glyph-name="eth" unicode="&#xf0;" horiz-adv-x="779" 
d="M578 616q80 -58 123 -138t43 -167q0 -152 -93.5 -238.5t-268.5 -86.5q-119 0 -198 31t-116.5 85t-37.5 123q0 94 71.5 151.5t209.5 57.5q76 0 123 -10.5t73.5 -30t44.5 -51.5h17q0 40 -29 84t-81 78l-68 -59l-65 55l50 43q-76 26 -166 26l20 155q155 -3 273 -62l71 62
l65 -55zM491.5 170.5q32.5 19.5 32.5 49.5t-32.5 49.5t-104.5 19.5t-104.5 -19.5t-32.5 -49.5t32.5 -49.5t104.5 -19.5t104.5 19.5z" />
    <glyph glyph-name="ntilde" unicode="&#xf1;" horiz-adv-x="803" 
d="M55 0v510h220l-30 -145h20q23 82 79.5 120.5t144.5 38.5q123 0 193.5 -71.5t70.5 -197.5v-255h-220v203q0 65 -34.5 100.5t-94.5 35.5t-94.5 -35.5t-34.5 -100.5v-203h-220zM174 565q-15 42 -15 80q0 56 28.5 85.5t82.5 29.5q28 0 54 -8t67 -25q49 -22 71 -22
q13 0 20 6.5t7 17.5t-5 31h150q15 -42 15 -80q0 -56 -28.5 -85.5t-82.5 -29.5q-28 0 -54 8t-67 25q-50 22 -71 22q-13 0 -20 -6.5t-7 -17.5t5 -31h-150z" />
    <glyph glyph-name="ograve" unicode="&#xf2;" horiz-adv-x="794" 
d="M196.5 22q-82.5 36 -124.5 97t-42 136t42 136t124.5 97t200.5 36t200.5 -36t124.5 -97t42 -136t-42 -136t-124.5 -97t-200.5 -36t-200.5 36zM506.5 184q37.5 28 37.5 71q0 42 -38 70.5t-109 28.5t-109 -28.5t-38 -70.5q0 -43 37.5 -71t109.5 -28t109.5 28zM522 570h-200
l-140 180h250z" />
    <glyph glyph-name="oacute" unicode="&#xf3;" horiz-adv-x="794" 
d="M196.5 22q-82.5 36 -124.5 97t-42 136t42 136t124.5 97t200.5 36t200.5 -36t124.5 -97t42 -136t-42 -136t-124.5 -97t-200.5 -36t-200.5 36zM506.5 184q37.5 28 37.5 71q0 42 -38 70.5t-109 28.5t-109 -28.5t-38 -70.5q0 -43 37.5 -71t109.5 -28t109.5 28zM472 570h-200
l90 180h250z" />
    <glyph glyph-name="ocircumflex" unicode="&#xf4;" horiz-adv-x="794" 
d="M196.5 22q-82.5 36 -124.5 97t-42 136t42 136t124.5 97t200.5 36t200.5 -36t124.5 -97t42 -136t-42 -136t-124.5 -97t-200.5 -36t-200.5 36zM506.5 184q37.5 28 37.5 71q0 42 -38 70.5t-109 28.5t-109 -28.5t-38 -70.5q0 -43 37.5 -71t109.5 -28t109.5 28zM482 750
l170 -180h-200l-55 62l-55 -62h-200l170 180h170z" />
    <glyph glyph-name="otilde" unicode="&#xf5;" horiz-adv-x="794" 
d="M196.5 22q-82.5 36 -124.5 97t-42 136t42 136t124.5 97t200.5 36t200.5 -36t124.5 -97t42 -136t-42 -136t-124.5 -97t-200.5 -36t-200.5 36zM506.5 184q37.5 28 37.5 71q0 42 -38 70.5t-109 28.5t-109 -28.5t-38 -70.5q0 -43 37.5 -71t109.5 -28t109.5 28zM167 565
q-15 42 -15 80q0 56 28.5 85.5t82.5 29.5q28 0 54 -8t67 -25q49 -22 71 -22q13 0 20 6.5t7 17.5t-5 31h150q15 -42 15 -80q0 -56 -28.5 -85.5t-82.5 -29.5q-28 0 -54 8t-67 25q-50 22 -71 22q-13 0 -20 -6.5t-7 -17.5t5 -31h-150z" />
    <glyph glyph-name="odieresis" unicode="&#xf6;" horiz-adv-x="794" 
d="M196.5 22q-82.5 36 -124.5 97t-42 136t42 136t124.5 97t200.5 36t200.5 -36t124.5 -97t42 -136t-42 -136t-124.5 -97t-200.5 -36t-200.5 36zM506.5 184q37.5 28 37.5 71q0 42 -38 70.5t-109 28.5t-109 -28.5t-38 -70.5q0 -43 37.5 -71t109.5 -28t109.5 28zM190.5 605.5
q-28.5 25.5 -28.5 64.5t28.5 64.5t76.5 25.5t76.5 -25.5t28.5 -64.5t-28.5 -64.5t-76.5 -25.5t-76.5 25.5zM450.5 605.5q-28.5 25.5 -28.5 64.5t28.5 64.5t76.5 25.5t76.5 -25.5t28.5 -64.5t-28.5 -64.5t-76.5 -25.5t-76.5 25.5z" />
    <glyph glyph-name="divide" unicode="&#xf7;" horiz-adv-x="610" 
d="M228.5 485.5q-28.5 25.5 -28.5 64.5t28.5 64.5t76.5 25.5t76.5 -25.5t28.5 -64.5t-28.5 -64.5t-76.5 -25.5t-76.5 25.5zM565 280h-520v140h520v-140zM228.5 85.5q-28.5 25.5 -28.5 64.5t28.5 64.5t76.5 25.5t76.5 -25.5t28.5 -64.5t-28.5 -64.5t-76.5 -25.5t-76.5 25.5z
" />
    <glyph glyph-name="oslash" unicode="&#xf8;" horiz-adv-x="794" 
d="M764 424l-44 -30q44 -62 44 -139q0 -75 -42 -136t-124.5 -97t-200.5 -36q-121 0 -209 40l-58 -40l-100 100l44 30q-44 62 -44 139q0 75 42 136t124.5 97t200.5 36q121 0 209 -40l58 40zM280.5 332.5q-40.5 -31.5 -40.5 -77.5q0 -21 9 -41l205 144q-26 6 -57 6
q-76 0 -116.5 -31.5zM513.5 177.5q40.5 31.5 40.5 77.5q0 22 -9 41l-205 -144q26 -6 57 -6q76 0 116.5 31.5z" />
    <glyph glyph-name="ugrave" unicode="&#xf9;" horiz-adv-x="788" 
d="M119 56.5q-69 70.5 -69 193.5v260h220v-208q0 -62 32.5 -96.5t88.5 -34.5q57 0 89.5 34.5t32.5 96.5v208h220v-510h-220l30 145h-20q-45 -159 -217 -159q-118 0 -187 70.5zM517 570h-200l-140 180h250z" />
    <glyph glyph-name="uacute" unicode="&#xfa;" horiz-adv-x="788" 
d="M119 56.5q-69 70.5 -69 193.5v260h220v-208q0 -62 32.5 -96.5t88.5 -34.5q57 0 89.5 34.5t32.5 96.5v208h220v-510h-220l30 145h-20q-45 -159 -217 -159q-118 0 -187 70.5zM467 570h-200l90 180h250z" />
    <glyph glyph-name="ucircumflex" unicode="&#xfb;" horiz-adv-x="788" 
d="M119 56.5q-69 70.5 -69 193.5v260h220v-208q0 -62 32.5 -96.5t88.5 -34.5q57 0 89.5 34.5t32.5 96.5v208h220v-510h-220l30 145h-20q-45 -159 -217 -159q-118 0 -187 70.5zM477 750l170 -180h-200l-55 62l-55 -62h-200l170 180h170z" />
    <glyph glyph-name="udieresis" unicode="&#xfc;" horiz-adv-x="788" 
d="M119 56.5q-69 70.5 -69 193.5v260h220v-208q0 -62 32.5 -96.5t88.5 -34.5q57 0 89.5 34.5t32.5 96.5v208h220v-510h-220l30 145h-20q-45 -159 -217 -159q-118 0 -187 70.5zM185.5 605.5q-28.5 25.5 -28.5 64.5t28.5 64.5t76.5 25.5t76.5 -25.5t28.5 -64.5t-28.5 -64.5
t-76.5 -25.5t-76.5 25.5zM445.5 605.5q-28.5 25.5 -28.5 64.5t28.5 64.5t76.5 25.5t76.5 -25.5t28.5 -64.5t-28.5 -64.5t-76.5 -25.5t-76.5 25.5z" />
    <glyph glyph-name="yacute" unicode="&#xfd;" horiz-adv-x="714" 
d="M464 510h255l-224 -487q-58 -125 -139 -179t-198 -54q-38 0 -66 5t-57 18v180q45 -18 94 -18q38 0 64.5 6.5t43.5 22.5l-242 506h255l69 -215q28 -89 28 -140v-5h20v5q0 51 28 140zM432 570h-200l90 180h250z" />
    <glyph glyph-name="thorn" unicode="&#xfe;" horiz-adv-x="815" 
d="M60 -190v890h220v-135q0 -91 -30 -185h20q24 73 83 108.5t156 35.5q81 0 142.5 -33.5t95 -94.5t33.5 -141t-33.5 -141t-95 -94.5t-142.5 -33.5q-97 0 -156 35.5t-83 108.5h-20q30 -94 30 -185v-135h-220zM524.5 184q35.5 28 35.5 71t-35.5 71t-102.5 28q-66 0 -101.5 -28
t-35.5 -71t35.5 -71t101.5 -28q67 0 102.5 28z" />
    <glyph glyph-name="ydieresis" unicode="&#xff;" horiz-adv-x="714" 
d="M464 510h255l-224 -487q-58 -125 -139 -179t-198 -54q-38 0 -66 5t-57 18v180q45 -18 94 -18q38 0 64.5 6.5t43.5 22.5l-242 506h255l69 -215q28 -89 28 -140v-5h20v5q0 51 28 140zM150.5 605.5q-28.5 25.5 -28.5 64.5t28.5 64.5t76.5 25.5t76.5 -25.5t28.5 -64.5
t-28.5 -64.5t-76.5 -25.5t-76.5 25.5zM410.5 605.5q-28.5 25.5 -28.5 64.5t28.5 64.5t76.5 25.5t76.5 -25.5t28.5 -64.5t-28.5 -64.5t-76.5 -25.5t-76.5 25.5z" />
    <glyph glyph-name="Amacron" unicode="&#x100;" horiz-adv-x="904" 
d="M904 0h-265l-34 90h-306l-34 -90h-265l304 700h296zM371 280h162l-29 77q-25 64 -33.5 105t-8.5 83v5h-20v-5q0 -42 -8.5 -83t-33.5 -105zM697 775h-490v170h490v-170z" />
    <glyph glyph-name="amacron" unicode="&#x101;" horiz-adv-x="770" 
d="M92 28q-57 42 -57 113q0 70 57 112t176 42q78 0 127.5 -12t99.5 -35v23q0 40 -34 66.5t-98 26.5q-99 0 -123 -49h-220q11 93 96.5 151t248.5 58q114 0 191.5 -33t115.5 -92t38 -136v-68q0 -16 6.5 -22.5t20.5 -6.5q12 0 23 4v-170q-39 -14 -87 -14q-71 0 -107 28.5
t-36 75.5h-20v-3q0 -41 -57 -71t-185 -30q-119 0 -176 42zM495 143v20q-62 17 -141 17q-56 0 -75 -7t-19 -20t19 -20t75 -7q79 0 141 17zM610 590h-460v155h460v-155z" />
    <glyph glyph-name="Abreve" unicode="&#x102;" horiz-adv-x="904" 
d="M904 0h-265l-34 90h-306l-34 -90h-265l304 700h296zM371 280h162l-29 77q-25 64 -33.5 105t-8.5 83v5h-20v-5q0 -42 -8.5 -83t-33.5 -105zM243 808q-71 53 -81 147h200q3 -19 25 -32t65 -13q44 0 65.5 13t24.5 32h200q-10 -94 -81 -147t-209 -53t-209 53z" />
    <glyph glyph-name="abreve" unicode="&#x103;" horiz-adv-x="770" 
d="M92 28q-57 42 -57 113q0 70 57 112t176 42q78 0 127.5 -12t99.5 -35v23q0 40 -34 66.5t-98 26.5q-99 0 -123 -49h-220q11 93 96.5 151t248.5 58q114 0 191.5 -33t115.5 -92t38 -136v-68q0 -16 6.5 -22.5t20.5 -6.5q12 0 23 4v-170q-39 -14 -87 -14q-71 0 -107 28.5
t-36 75.5h-20v-3q0 -41 -57 -71t-185 -30q-119 0 -176 42zM495 143v20q-62 17 -141 17q-56 0 -75 -7t-19 -20t19 -20t75 -7q79 0 141 17zM194.5 617q-66.5 52 -74.5 138h185q2 -22 21 -36t54 -14t54 14t21 36h185q-8 -86 -74.5 -138t-185.5 -52t-185.5 52z" />
    <glyph glyph-name="Aogonek" unicode="&#x104;" horiz-adv-x="904" 
d="M809.5 -103.5q15.5 -11.5 47.5 -11.5q20 0 47 6v-130q-44 -16 -95 -16q-88 0 -131.5 34.5t-43.5 92.5q0 37 20 71t62 57h-77l-34 90h-306l-34 -90h-265l304 700h296l304 -700q-64 -19 -87 -36.5t-23 -37.5q0 -18 15.5 -29.5zM371 280h162l-29 77q-25 64 -33.5 105
t-8.5 83v5h-20v-5q0 -42 -8.5 -83t-33.5 -105z" />
    <glyph glyph-name="aogonek" unicode="&#x105;" horiz-adv-x="770" 
d="M668.5 -40q-18.5 -16 -18.5 -34t15.5 -29.5t47.5 -11.5q20 0 47 6v-130q-44 -16 -95 -16q-88 0 -131.5 34.5t-43.5 92.5q0 40 22.5 75.5t69.5 57.5q-26 13 -39 35t-13 50h-20v-3q0 -41 -57 -71t-185 -30q-119 0 -176 42t-57 113q0 70 57 112t176 42q78 0 127.5 -12
t99.5 -35v23q0 40 -34 66.5t-98 26.5q-99 0 -123 -49h-220q11 93 96.5 151t248.5 58q114 0 191.5 -33t115.5 -92t38 -136v-68q0 -16 6.5 -22.5t20.5 -6.5q12 0 23 4v-170q-7 -3 -21 -7q-52 -17 -70.5 -33zM495 163q-62 17 -141 17q-56 0 -75 -7t-19 -20t19 -20t75 -7
q79 0 141 17v20z" />
    <glyph glyph-name="Cacute" unicode="&#x106;" horiz-adv-x="1006" 
d="M252.5 33.5q-105.5 47.5 -159 130t-53.5 186.5t53.5 186.5t159 130t255.5 47.5q140 0 241.5 -39t158 -106.5t68.5 -153.5h-250q-6 24 -31 46.5t-72 37.5t-115 15q-105 0 -161.5 -46t-56.5 -118t56.5 -118t161.5 -46q68 0 115 15t72 37.5t31 46.5h250
q-12 -86 -68.5 -153.5t-158 -106.5t-241.5 -39q-150 0 -255.5 47.5zM588 760h-220l110 190h280z" />
    <glyph glyph-name="cacute" unicode="&#x107;" horiz-adv-x="762" 
d="M192.5 22q-80.5 36 -121.5 97.5t-41 135.5t41 135.5t121.5 97.5t193.5 36q101 0 179 -29.5t124 -82.5t53 -122h-220q-8 27 -42.5 45.5t-93.5 18.5q-64 0 -100 -29t-36 -70t36 -70t100 -29q59 0 93.5 18.5t42.5 45.5h220q-7 -69 -53 -122t-124 -82.5t-179 -29.5
q-113 0 -193.5 36zM461 570h-200l90 180h250z" />
    <glyph glyph-name="Ccircumflex" unicode="&#x108;" horiz-adv-x="1006" 
d="M252.5 33.5q-105.5 47.5 -159 130t-53.5 186.5t53.5 186.5t159 130t255.5 47.5q140 0 241.5 -39t158 -106.5t68.5 -153.5h-250q-6 24 -31 46.5t-72 37.5t-115 15q-105 0 -161.5 -46t-56.5 -118t56.5 -118t161.5 -46q68 0 115 15t72 37.5t31 46.5h250
q-12 -86 -68.5 -153.5t-158 -106.5t-241.5 -39q-150 0 -255.5 47.5zM608 950l185 -190h-225l-60 70l-60 -70h-225l185 190h200z" />
    <glyph glyph-name="ccircumflex" unicode="&#x109;" horiz-adv-x="762" 
d="M192.5 22q-80.5 36 -121.5 97.5t-41 135.5t41 135.5t121.5 97.5t193.5 36q101 0 179 -29.5t124 -82.5t53 -122h-220q-8 27 -42.5 45.5t-93.5 18.5q-64 0 -100 -29t-36 -70t36 -70t100 -29q59 0 93.5 18.5t42.5 45.5h220q-7 -69 -53 -122t-124 -82.5t-179 -29.5
q-113 0 -193.5 36zM471 750l170 -180h-200l-55 62l-55 -62h-200l170 180h170z" />
    <glyph glyph-name="Cdotaccent" unicode="&#x10a;" horiz-adv-x="1006" 
d="M252.5 33.5q-105.5 47.5 -159 130t-53.5 186.5t53.5 186.5t159 130t255.5 47.5q140 0 241.5 -39t158 -106.5t68.5 -153.5h-250q-6 24 -31 46.5t-72 37.5t-115 15q-105 0 -161.5 -46t-56.5 -118t56.5 -118t161.5 -46q68 0 115 15t72 37.5t31 46.5h250
q-12 -86 -68.5 -153.5t-158 -106.5t-241.5 -39q-150 0 -255.5 47.5zM405.5 787.5q-37.5 32.5 -37.5 82.5t37.5 82.5t102.5 32.5t102.5 -32.5t37.5 -82.5t-37.5 -82.5t-102.5 -32.5t-102.5 32.5z" />
    <glyph glyph-name="cdotaccent" unicode="&#x10b;" horiz-adv-x="762" 
d="M192.5 22q-80.5 36 -121.5 97.5t-41 135.5t41 135.5t121.5 97.5t193.5 36q101 0 179 -29.5t124 -82.5t53 -122h-220q-8 27 -42.5 45.5t-93.5 18.5q-64 0 -100 -29t-36 -70t36 -70t100 -29q59 0 93.5 18.5t42.5 45.5h220q-7 -69 -53 -122t-124 -82.5t-179 -29.5
q-113 0 -193.5 36zM298.5 594.5q-32.5 29.5 -32.5 75.5t32.5 75.5t87.5 29.5t87.5 -29.5t32.5 -75.5t-32.5 -75.5t-87.5 -29.5t-87.5 29.5z" />
    <glyph glyph-name="Ccaron" unicode="&#x10c;" horiz-adv-x="1006" 
d="M252.5 33.5q-105.5 47.5 -159 130t-53.5 186.5t53.5 186.5t159 130t255.5 47.5q140 0 241.5 -39t158 -106.5t68.5 -153.5h-250q-6 24 -31 46.5t-72 37.5t-115 15q-105 0 -161.5 -46t-56.5 -118t56.5 -118t161.5 -46q68 0 115 15t72 37.5t31 46.5h250
q-12 -86 -68.5 -153.5t-158 -106.5t-241.5 -39q-150 0 -255.5 47.5zM508 880l60 70h225l-185 -190h-200l-185 190h225z" />
    <glyph glyph-name="ccaron" unicode="&#x10d;" horiz-adv-x="762" 
d="M192.5 22q-80.5 36 -121.5 97.5t-41 135.5t41 135.5t121.5 97.5t193.5 36q101 0 179 -29.5t124 -82.5t53 -122h-220q-8 27 -42.5 45.5t-93.5 18.5q-64 0 -100 -29t-36 -70t36 -70t100 -29q59 0 93.5 18.5t42.5 45.5h220q-7 -69 -53 -122t-124 -82.5t-179 -29.5
q-113 0 -193.5 36zM386 688l55 62h200l-170 -180h-170l-170 180h200z" />
    <glyph glyph-name="Dcaron" unicode="&#x10e;" horiz-adv-x="915" 
d="M65 0v700h370q141 0 240 -45t149.5 -124t50.5 -181t-50.5 -181t-149.5 -124t-240 -45h-370zM435 200q93 0 141.5 41t48.5 109t-48.5 109t-141.5 41h-120v-300h120zM450 880l60 70h225l-185 -190h-200l-185 190h225z" />
    <glyph glyph-name="dcaron" unicode="&#x10f;" horiz-adv-x="815" 
d="M163.5 19.5q-61.5 33.5 -95 94.5t-33.5 141t33.5 141t95 94.5t142.5 33.5q97 0 156 -35.5t83 -108.5h20q-30 94 -30 185v135h220v-700h-220l30 130h-20q-24 -73 -83 -108.5t-156 -35.5q-81 0 -142.5 33.5zM494.5 184q35.5 28 35.5 71t-35.5 71t-101.5 28
q-67 0 -102.5 -28t-35.5 -71t35.5 -71t102.5 -28q66 0 101.5 28zM965 500h-160l20 200h190z" />
    <glyph glyph-name="Dcroat" unicode="&#x110;" horiz-adv-x="945" 
d="M465 700q141 0 240 -45t149.5 -124t50.5 -181t-50.5 -181t-149.5 -124t-240 -45h-370v267h-110v165h110v268h370zM465 200q93 0 141.5 41t48.5 109t-48.5 109t-141.5 41h-120v-68h150v-165h-150v-67h120z" />
    <glyph glyph-name="dcroat" unicode="&#x111;" horiz-adv-x="830" 
d="M835 640v-130h-90v-510h-220l30 130h-20q-24 -73 -83 -108.5t-156 -35.5q-80 0 -141.5 32.5t-95.5 88t-34 123.5t34 123.5t95.5 88t141.5 32.5q97 0 156 -35.5t83 -108.5h20q-29 88 -30 180h-250v130h250v60h220v-60h90zM486.5 169.5q33.5 23.5 33.5 60.5t-33.5 60.5
t-103.5 23.5q-71 0 -104.5 -23.5t-33.5 -60.5t33.5 -60.5t104.5 -23.5q70 0 103.5 23.5z" />
    <glyph glyph-name="Emacron" unicode="&#x112;" horiz-adv-x="830" 
d="M785 700v-190h-470v-72h400v-165h-400v-83h470v-190h-720v700h720zM670 775h-490v170h490v-170z" />
    <glyph glyph-name="emacron" unicode="&#x113;" horiz-adv-x="780" 
d="M746 200h-502q34 -59 147 -59q59 0 88.5 8t51.5 21h210q-15 -42 -55.5 -84t-115.5 -71t-183 -29q-113 0 -193.5 36t-122 97t-41.5 136t41.5 136t123 97t195.5 36q115 0 196 -36t122.5 -98t41.5 -138q0 -23 -4 -52zM244 310h292q-34 59 -146 59t-146 -59zM620 590h-460
v155h460v-155z" />
    <glyph glyph-name="Ebreve" unicode="&#x114;" horiz-adv-x="830" 
d="M785 700v-190h-470v-72h400v-165h-400v-83h470v-190h-720v700h720zM216 808q-71 53 -81 147h200q3 -19 25 -32t65 -13q44 0 65.5 13t24.5 32h200q-10 -94 -81 -147t-209 -53t-209 53z" />
    <glyph glyph-name="ebreve" unicode="&#x115;" horiz-adv-x="780" 
d="M746 200h-502q34 -59 147 -59q59 0 88.5 8t51.5 21h210q-15 -42 -55.5 -84t-115.5 -71t-183 -29q-113 0 -193.5 36t-122 97t-41.5 136t41.5 136t123 97t195.5 36q115 0 196 -36t122.5 -98t41.5 -138q0 -23 -4 -52zM244 310h292q-34 59 -146 59t-146 -59zM204.5 617
q-66.5 52 -74.5 138h185q2 -22 21 -36t54 -14t54 14t21 36h185q-8 -86 -74.5 -138t-185.5 -52t-185.5 52z" />
    <glyph glyph-name="Edotaccent" unicode="&#x116;" horiz-adv-x="830" 
d="M785 700v-190h-470v-72h400v-165h-400v-83h470v-190h-720v700h720zM322.5 787.5q-37.5 32.5 -37.5 82.5t37.5 82.5t102.5 32.5t102.5 -32.5t37.5 -82.5t-37.5 -82.5t-102.5 -32.5t-102.5 32.5z" />
    <glyph glyph-name="edotaccent" unicode="&#x117;" horiz-adv-x="780" 
d="M746 200h-502q34 -59 147 -59q59 0 88.5 8t51.5 21h210q-15 -42 -55.5 -84t-115.5 -71t-183 -29q-113 0 -193.5 36t-122 97t-41.5 136t41.5 136t123 97t195.5 36q115 0 196 -36t122.5 -98t41.5 -138q0 -23 -4 -52zM244 310h292q-34 59 -146 59t-146 -59zM302.5 594.5
q-32.5 29.5 -32.5 75.5t32.5 75.5t87.5 29.5t87.5 -29.5t32.5 -75.5t-32.5 -75.5t-87.5 -29.5t-87.5 29.5z" />
    <glyph glyph-name="Eogonek" unicode="&#x118;" horiz-adv-x="830" 
d="M785 510h-470v-72h400v-165h-400v-83h470v-190q-64 -19 -87 -36.5t-23 -37.5q0 -18 15.5 -29.5t47.5 -11.5q20 0 47 6v-130q-44 -16 -95 -16q-88 0 -131.5 34.5t-43.5 92.5q0 37 20 71t62 57h-532v700h720v-190z" />
    <glyph glyph-name="eogonek" unicode="&#x119;" horiz-adv-x="780" 
d="M746 200h-502q34 -59 147 -59q59 0 88.5 8t51.5 21h210q-9 -27 -30.5 -55t-64.5 -62q-71 -56 -94.5 -80t-23.5 -47q0 -18 15.5 -29.5t47.5 -11.5q20 0 47 6v-130q-44 -16 -95 -16q-88 0 -131.5 34.5t-43.5 92.5q0 32 15 62.5t46 52.5q-13 -1 -42 -1q-113 0 -193.5 36
t-122 97t-41.5 136t41.5 136t123 97t195.5 36q115 0 196 -36t122.5 -98t41.5 -138q0 -23 -4 -52zM244 310h292q-34 59 -146 59t-146 -59z" />
    <glyph glyph-name="Ecaron" unicode="&#x11a;" horiz-adv-x="830" 
d="M785 700v-190h-470v-72h400v-165h-400v-83h470v-190h-720v700h720zM425 880l60 70h225l-185 -190h-200l-185 190h225z" />
    <glyph glyph-name="ecaron" unicode="&#x11b;" horiz-adv-x="780" 
d="M746 200h-502q34 -59 147 -59q59 0 88.5 8t51.5 21h210q-15 -42 -55.5 -84t-115.5 -71t-183 -29q-113 0 -193.5 36t-122 97t-41.5 136t41.5 136t123 97t195.5 36q115 0 196 -36t122.5 -98t41.5 -138q0 -23 -4 -52zM244 310h292q-34 59 -146 59t-146 -59zM390 688l55 62
h200l-170 -180h-170l-170 180h200z" />
    <glyph glyph-name="Gcircumflex" unicode="&#x11c;" horiz-adv-x="1005" 
d="M442 230v145h508v-375h-215l41 135h-20q-77 -149 -297 -149q-126 0 -221.5 48t-146.5 131t-51 185q0 104 53.5 186.5t157.5 130t250 47.5q211 0 326 -81.5t143 -217.5h-250q-21 48 -75 76t-143 28q-105 0 -161 -46.5t-56 -122.5q0 -79 56 -126.5t163 -47.5q137 0 196 54
h-258zM601 950l185 -190h-225l-60 70l-60 -70h-225l185 190h200z" />
    <glyph glyph-name="gcircumflex" unicode="&#x11d;" horiz-adv-x="767" 
d="M89 -173q-84 47 -84 128q0 98 132 122v17h-31q-61 0 -61 45t61 45h26v17q-39 14 -63 50.5t-24 82.5q0 89 80 139.5t267 50.5h110q35 0 35 28q0 17 -18 42h198q15 -16 20 -27t5 -24q0 -23 -20 -37.5t-62 -14.5h-55v-17q71 -22 99 -59t28 -90q0 -81 -73 -124.5t-249 -43.5
h-181q-12 0 -18 -5t-6 -14t6 -14t18 -5h252q95 0 156.5 -22t90.5 -59t29 -81q0 -83 -84 -130t-293 -47q-207 0 -291 47zM498 285.5q29 13.5 29 39.5t-28.5 40t-107.5 14t-107.5 -14t-28.5 -40t29 -39.5t107 -13.5t107 13.5zM485 -70q35 5 46 13t11 22q0 13 -11 21.5t-46 13
t-104 4.5t-104 -4.5t-46 -13t-11 -21.5q0 -14 11 -22t46 -13t104 -5t104 5zM467 750l145 -140h-190l-45 45l-45 -45h-190l145 140h180z" />
    <glyph glyph-name="Gbreve" unicode="&#x11e;" horiz-adv-x="1005" 
d="M442 230v145h508v-375h-215l41 135h-20q-77 -149 -297 -149q-126 0 -221.5 48t-146.5 131t-51 185q0 104 53.5 186.5t157.5 130t250 47.5q211 0 326 -81.5t143 -217.5h-250q-21 48 -75 76t-143 28q-105 0 -161 -46.5t-56 -122.5q0 -79 56 -126.5t163 -47.5q137 0 196 54
h-258zM292 808q-71 53 -81 147h200q3 -19 25 -32t65 -13q44 0 65.5 13t24.5 32h200q-10 -94 -81 -147t-209 -53t-209 53z" />
    <glyph glyph-name="gbreve" unicode="&#x11f;" horiz-adv-x="767" 
d="M89 -173q-84 47 -84 128q0 98 132 122v17h-31q-61 0 -61 45t61 45h26v17q-39 14 -63 50.5t-24 82.5q0 89 80 139.5t267 50.5h110q35 0 35 28q0 17 -18 42h198q15 -16 20 -27t5 -24q0 -23 -20 -37.5t-62 -14.5h-55v-17q71 -22 99 -59t28 -90q0 -81 -73 -124.5t-249 -43.5
h-181q-12 0 -18 -5t-6 -14t6 -14t18 -5h252q95 0 156.5 -22t90.5 -59t29 -81q0 -83 -84 -130t-293 -47q-207 0 -291 47zM498 285.5q29 13.5 29 39.5t-28.5 40t-107.5 14t-107.5 -14t-28.5 -40t29 -39.5t107 -13.5t107 13.5zM485 -70q35 5 46 13t11 22q0 13 -11 21.5t-46 13
t-104 4.5t-104 -4.5t-46 -13t-11 -21.5q0 -14 11 -22t46 -13t104 -5t104 5zM210 620q-59 50 -68 135h180q0 -24 13 -37t37 -13t37 13t13 37h180q-9 -85 -68 -135t-162 -50t-162 50z" />
    <glyph glyph-name="Gdotaccent" unicode="&#x120;" horiz-adv-x="1005" 
d="M442 230v145h508v-375h-215l41 135h-20q-77 -149 -297 -149q-126 0 -221.5 48t-146.5 131t-51 185q0 104 53.5 186.5t157.5 130t250 47.5q211 0 326 -81.5t143 -217.5h-250q-21 48 -75 76t-143 28q-105 0 -161 -46.5t-56 -122.5q0 -79 56 -126.5t163 -47.5q137 0 196 54
h-258zM398.5 787.5q-37.5 32.5 -37.5 82.5t37.5 82.5t102.5 32.5t102.5 -32.5t37.5 -82.5t-37.5 -82.5t-102.5 -32.5t-102.5 32.5z" />
    <glyph glyph-name="gdotaccent" unicode="&#x121;" horiz-adv-x="767" 
d="M89 -173q-84 47 -84 128q0 98 132 122v17h-31q-61 0 -61 45t61 45h26v17q-39 14 -63 50.5t-24 82.5q0 89 80 139.5t267 50.5h110q35 0 35 28q0 17 -18 42h198q15 -16 20 -27t5 -24q0 -23 -20 -37.5t-62 -14.5h-55v-17q71 -22 99 -59t28 -90q0 -81 -73 -124.5t-249 -43.5
h-181q-12 0 -18 -5t-6 -14t6 -14t18 -5h252q95 0 156.5 -22t90.5 -59t29 -81q0 -83 -84 -130t-293 -47q-207 0 -291 47zM498 285.5q29 13.5 29 39.5t-28.5 40t-107.5 14t-107.5 -14t-28.5 -40t29 -39.5t107 -13.5t107 13.5zM485 -70q35 5 46 13t11 22q0 13 -11 21.5t-46 13
t-104 4.5t-104 -4.5t-46 -13t-11 -21.5q0 -14 11 -22t46 -13t104 -5t104 5zM294.5 594.5q-32.5 29.5 -32.5 75.5t32.5 75.5t87.5 29.5t87.5 -29.5t32.5 -75.5t-32.5 -75.5t-87.5 -29.5t-87.5 29.5z" />
    <glyph glyph-name="uni0122" unicode="&#x122;" horiz-adv-x="1005" 
d="M442 230v145h508v-375h-215l41 135h-20q-77 -149 -297 -149q-126 0 -221.5 48t-146.5 131t-51 185q0 104 53.5 186.5t157.5 130t250 47.5q211 0 326 -81.5t143 -217.5h-250q-21 48 -75 76t-143 28q-105 0 -161 -46.5t-56 -122.5q0 -79 56 -126.5t163 -47.5q137 0 196 54
h-258zM607 -88.5q31 -34.5 31 -100.5q0 -67 -29.5 -119t-81.5 -81.5t-119 -29.5v120h16q49 0 76.5 8t42.5 28q-5 -1 -15 -1q-52 0 -83.5 29.5t-31.5 75.5q0 45 30.5 75t77.5 30q55 0 86 -34.5z" />
    <glyph glyph-name="uni0123" unicode="&#x123;" horiz-adv-x="767" 
d="M89 -173q-84 47 -84 128q0 98 132 122v17h-31q-61 0 -61 45t61 45h26v17q-39 14 -63 50.5t-24 82.5q0 89 80 139.5t267 50.5h110q35 0 35 28q0 17 -18 42h198q15 -16 20 -27t5 -24q0 -23 -20 -37.5t-62 -14.5h-55v-17q71 -22 99 -59t28 -90q0 -81 -73 -124.5t-249 -43.5
h-181q-12 0 -18 -5t-6 -14t6 -14t18 -5h252q95 0 156.5 -22t90.5 -59t29 -81q0 -83 -84 -130t-293 -47q-207 0 -291 47zM498 285.5q29 13.5 29 39.5t-28.5 40t-107.5 14t-107.5 -14t-28.5 -40t29 -39.5t107 -13.5t107 13.5zM485 -70q35 5 46 13t11 22q0 13 -11 21.5t-46 13
t-104 4.5t-104 -4.5t-46 -13t-11 -21.5q0 -14 11 -22t46 -13t104 -5t104 5zM483 800q-49 0 -76.5 -8t-42.5 -28q5 1 15 1q52 0 83.5 -29.5t31.5 -75.5q0 -45 -30.5 -75t-77.5 -30q-55 0 -86 34.5t-31 100.5q0 67 29.5 119t81.5 81.5t119 29.5v-120h-16z" />
    <glyph glyph-name="Hcircumflex" unicode="&#x124;" horiz-adv-x="960" 
d="M645 465v235h250v-700h-250v260h-330v-260h-250v700h250v-235h330zM565 940l170 -180h-200l-55 62l-55 -62h-200l170 180h170z" />
    <glyph glyph-name="hcircumflex" unicode="&#x125;" horiz-adv-x="808" 
d="M60 0v700h220v-150q0 -91 -30 -185h20q23 82 79.5 120.5t144.5 38.5q123 0 193.5 -71.5t70.5 -197.5v-255h-220v203q0 65 -34.5 100.5t-94.5 35.5t-94.5 -35.5t-34.5 -100.5v-203h-220zM509 950l185 -190h-225l-60 70l-60 -70h-225l185 190h200z" />
    <glyph glyph-name="Hbar" unicode="&#x126;" horiz-adv-x="1020" 
d="M925 665h110v-165h-110v-500h-250v260h-330v-260h-250v500h-110v165h110v35h250v-50h330v50h250v-35zM345 515v-50h330v50h-330z" />
    <glyph glyph-name="hbar" unicode="&#x127;" horiz-adv-x="833" 
d="M712.5 397.5q70.5 -71.5 70.5 -197.5v-200h-220v158q0 65 -34.5 100.5t-94.5 35.5t-94.5 -35.5t-34.5 -100.5v-158h-220v510h-90v130h90v60h220v-60h250v-130h-250v-15q0 -91 -30 -185h20q23 82 79.5 120.5t144.5 38.5q123 0 193.5 -71.5z" />
    <glyph glyph-name="Itilde" unicode="&#x128;" horiz-adv-x="730" 
d="M685 0h-640v195h195v310h-195v195h640v-195h-195v-310h195v-195zM120 755q-15 56 -15 90q0 57 30.5 88.5t85.5 31.5q41 0 75 -10t75 -27q16 -7 31 -12.5t24 -5.5q24 0 24 22q0 10 -5 33h165q15 -56 15 -90q0 -57 -30.5 -88.5t-85.5 -31.5q-41 0 -75 10t-75 27
q-16 7 -31 12.5t-24 5.5q-24 0 -24 -22q0 -10 5 -33h-165z" />
    <glyph glyph-name="itilde" unicode="&#x129;" horiz-adv-x="550" 
d="M400 180h140v-180h-515v180h165v108q0 26 -10.5 36t-36.5 10q-25 0 -48 -10v180q47 20 124 20q70 0 109 -15t55.5 -47.5t16.5 -89.5v-192zM38 565q-15 42 -15 80q0 56 28.5 85.5t82.5 29.5q28 0 54 -8t67 -25q49 -22 71 -22q13 0 20 6.5t7 17.5t-5 31h150q15 -42 15 -80
q0 -56 -28.5 -85.5t-82.5 -29.5q-28 0 -54 8t-67 25q-50 22 -71 22q-13 0 -20 -6.5t-7 -17.5t5 -31h-150z" />
    <glyph glyph-name="Imacron" unicode="&#x12a;" horiz-adv-x="730" 
d="M685 0h-640v195h195v310h-195v195h640v-195h-195v-310h195v-195zM610 775h-490v170h490v-170z" />
    <glyph glyph-name="imacron" unicode="&#x12b;" horiz-adv-x="550" 
d="M400 180h140v-180h-515v180h165v108q0 26 -10.5 36t-36.5 10q-25 0 -48 -10v180q47 20 124 20q70 0 109 -15t55.5 -47.5t16.5 -89.5v-192zM498 590h-460v155h460v-155z" />
    <glyph glyph-name="Ibreve" unicode="&#x12c;" horiz-adv-x="730" 
d="M685 0h-640v195h195v310h-195v195h640v-195h-195v-310h195v-195zM156 808q-71 53 -81 147h200q3 -19 25 -32t65 -13q44 0 65.5 13t24.5 32h200q-10 -94 -81 -147t-209 -53t-209 53z" />
    <glyph glyph-name="ibreve" unicode="&#x12d;" horiz-adv-x="550" 
d="M400 180h140v-180h-515v180h165v108q0 26 -10.5 36t-36.5 10q-25 0 -48 -10v180q47 20 124 20q70 0 109 -15t55.5 -47.5t16.5 -89.5v-192zM82.5 617q-66.5 52 -74.5 138h185q2 -22 21 -36t54 -14t54 14t21 36h185q-8 -86 -74.5 -138t-185.5 -52t-185.5 52z" />
    <glyph glyph-name="Iogonek" unicode="&#x12e;" horiz-adv-x="730" 
d="M685 505h-195v-310h195v-195h-210q-64 -19 -87 -36.5t-23 -37.5q0 -18 15.5 -29.5t47.5 -11.5q20 0 47 6v-130q-44 -16 -95 -16q-88 0 -131.5 34.5t-43.5 92.5q0 37 20 71t62 57h-242v195h195v310h-195v195h640v-195z" />
    <glyph glyph-name="iogonek" unicode="&#x12f;" horiz-adv-x="550" 
d="M180.5 594.5q-32.5 29.5 -32.5 75.5t32.5 75.5t87.5 29.5t87.5 -29.5t32.5 -75.5t-32.5 -75.5t-87.5 -29.5t-87.5 29.5zM400 180h140v-180h-140q-64 -19 -87 -36.5t-23 -37.5q0 -18 15.5 -29.5t47.5 -11.5q20 0 47 6v-130q-44 -16 -95 -16q-88 0 -131.5 34.5t-43.5 92.5
q0 37 20 71t62 57h-187v180h165v108q0 26 -10.5 36t-36.5 10q-25 0 -48 -10v180q47 20 124 20q70 0 109 -15t55.5 -47.5t16.5 -89.5v-192z" />
    <glyph glyph-name="Idotaccent" unicode="&#x130;" horiz-adv-x="730" 
d="M685 0h-640v195h195v310h-195v195h640v-195h-195v-310h195v-195zM262.5 787.5q-37.5 32.5 -37.5 82.5t37.5 82.5t102.5 32.5t102.5 -32.5t37.5 -82.5t-37.5 -82.5t-102.5 -32.5t-102.5 32.5z" />
    <glyph glyph-name="dotlessi" unicode="&#x131;" horiz-adv-x="550" 
d="M400 180h140v-180h-515v180h165v108q0 26 -10.5 36t-36.5 10q-25 0 -48 -10v180q47 20 124 20q70 0 109 -15t55.5 -47.5t16.5 -89.5v-192z" />
    <glyph glyph-name="IJ" unicode="&#x132;" horiz-adv-x="1495" 
d="M685 0h-640v195h195v310h-195v195h640v-195h-195v-310h195v-195zM802.5 67q-92.5 81 -92.5 226v17h250v-7q0 -54 29.5 -83t85.5 -29t85.5 29t29.5 83v192h-380v205h630v-403q0 -147 -92 -229t-273 -82q-180 0 -272.5 81z" />
    <glyph glyph-name="ij" unicode="&#x133;" horiz-adv-x="920" 
d="M400 180h140v-180h-515v180h165v108q0 26 -10.5 36t-36.5 10q-25 0 -48 -10v180q47 20 124 20q70 0 109 -15t55.5 -47.5t16.5 -89.5v-192zM180.5 594.5q-32.5 29.5 -32.5 75.5t32.5 75.5t87.5 29.5t87.5 -29.5t32.5 -75.5t-32.5 -75.5t-87.5 -29.5t-87.5 29.5zM547 -205
q-28 5 -57 18v175q45 -18 87 -18q83 0 83 66v252q0 26 -10.5 36t-36.5 10q-25 0 -48 -10v180q47 20 124 20q70 0 109 -15t55.5 -47.5t16.5 -89.5v-340q0 -116 -65.5 -179t-191.5 -63q-38 0 -66 5zM650.5 594.5q-32.5 29.5 -32.5 75.5t32.5 75.5t87.5 29.5t87.5 -29.5
t32.5 -75.5t-32.5 -75.5t-87.5 -29.5t-87.5 29.5z" />
    <glyph glyph-name="Jcircumflex" unicode="&#x134;" horiz-adv-x="805" 
d="M112.5 67q-92.5 81 -92.5 226v17h250v-7q0 -54 29.5 -83t85.5 -29t85.5 29t29.5 83v192h-380v205h630v-403q0 -147 -92 -229t-273 -82q-180 0 -272.5 81zM535 950l185 -190h-225l-60 70l-60 -70h-225l185 190h200z" />
    <glyph glyph-name="jcircumflex" unicode="&#x135;" horiz-adv-x="370" 
d="M-3 -205q-28 5 -57 18v175q45 -18 87 -18q83 0 83 66v252q0 26 -10.5 36t-36.5 10q-25 0 -48 -10v180q47 20 124 20q70 0 109 -15t55.5 -47.5t16.5 -89.5v-340q0 -116 -65.5 -179t-191.5 -63q-38 0 -66 5zM273 750l170 -180h-200l-55 62l-55 -62h-200l170 180h170z" />
    <glyph glyph-name="uni0136" unicode="&#x136;" horiz-adv-x="860" 
d="M569 365l291 -365h-315l-230 325v-325h-250v700h250v-305l220 305h305zM517 -88.5q31 -34.5 31 -100.5q0 -67 -29.5 -119t-81.5 -81.5t-119 -29.5v120h16q49 0 76.5 8t42.5 28q-5 -1 -15 -1q-52 0 -83.5 29.5t-31.5 75.5q0 45 30.5 75t77.5 30q55 0 86 -34.5z" />
    <glyph glyph-name="uni0137" unicode="&#x137;" horiz-adv-x="702" 
d="M508 267l209 -267h-270l-167 243v-243h-220v700h220v-414l162 224h265zM451 -88.5q31 -34.5 31 -100.5q0 -67 -29.5 -119t-81.5 -81.5t-119 -29.5v120h16q49 0 76.5 8t42.5 28q-5 -1 -15 -1q-52 0 -83.5 29.5t-31.5 75.5q0 45 30.5 75t77.5 30q55 0 86 -34.5z" />
    <glyph glyph-name="Lacute" unicode="&#x139;" horiz-adv-x="765" 
d="M745 0h-680v700h250v-495h430v-205zM270 760h-220l110 190h280z" />
    <glyph glyph-name="lacute" unicode="&#x13a;" horiz-adv-x="595" 
d="M425 180h160v-180h-565v180h185v298q0 26 -11 36t-41 10q-31 0 -53 -15v180q50 25 136 25q74 0 114.5 -15t57.5 -47.5t17 -89.5v-382zM374 760h-220l110 190h280z" />
    <glyph glyph-name="uni013B" unicode="&#x13b;" horiz-adv-x="765" 
d="M745 0h-680v700h250v-495h430v-205zM487 -88.5q31 -34.5 31 -100.5q0 -67 -29.5 -119t-81.5 -81.5t-119 -29.5v120h16q49 0 76.5 8t42.5 28q-5 -1 -15 -1q-52 0 -83.5 29.5t-31.5 75.5q0 45 30.5 75t77.5 30q55 0 86 -34.5z" />
    <glyph glyph-name="uni013C" unicode="&#x13c;" horiz-adv-x="595" 
d="M425 180h160v-180h-565v180h185v298q0 26 -11 36t-41 10q-31 0 -53 -15v180q50 25 136 25q74 0 114.5 -15t57.5 -47.5t17 -89.5v-382zM402 -88.5q31 -34.5 31 -100.5q0 -67 -29.5 -119t-81.5 -81.5t-119 -29.5v120h16q49 0 76.5 8t42.5 28q-5 -1 -15 -1q-52 0 -83.5 29.5
t-31.5 75.5q0 45 30.5 75t77.5 30q55 0 86 -34.5z" />
    <glyph glyph-name="Lcaron" unicode="&#x13d;" horiz-adv-x="765" 
d="M745 0h-680v700h250v-495h430v-205zM525 500h-160l20 200h190z" />
    <glyph glyph-name="lcaron" unicode="&#x13e;" horiz-adv-x="595" 
d="M425 180h160v-180h-565v180h185v298q0 26 -11 36t-41 10q-31 0 -53 -15v180q50 25 136 25q74 0 114.5 -15t57.5 -47.5t17 -89.5v-382zM635 500h-160l20 200h190z" />
    <glyph glyph-name="Ldot" unicode="&#x13f;" horiz-adv-x="765" 
d="M745 0h-680v700h250v-495h430v-205zM484 372.5q-34 32.5 -34 82.5t34 82.5t88 32.5q55 0 89 -32.5t34 -82.5t-34 -82.5t-89 -32.5q-54 0 -88 32.5z" />
    <glyph glyph-name="ldot" unicode="&#x140;" horiz-adv-x="595" 
d="M425 180h160v-180h-565v180h185v298q0 26 -11 36t-41 10q-31 0 -53 -15v180q50 25 136 25q74 0 114.5 -15t57.5 -47.5t17 -89.5v-382zM519 312.5q-34 32.5 -34 82.5t34 82.5t88 32.5q55 0 89 -32.5t34 -82.5t-34 -82.5t-89 -32.5q-54 0 -88 32.5z" />
    <glyph glyph-name="Lslash" unicode="&#x141;" horiz-adv-x="795" 
d="M345 309v-104h430v-205h-680v198l-110 -48v180l110 48v322h250v-211l230 101v-180z" />
    <glyph glyph-name="lslash" unicode="&#x142;" horiz-adv-x="595" 
d="M425 180h160v-180h-565v180h185v98l-105 -51v145l105 51v55q0 26 -11 36t-41 10q-31 0 -53 -15v180q50 25 136 25q74 0 114.5 -15t57.5 -47.5t17 -89.5v-31l110 54v-145l-110 -54v-206z" />
    <glyph glyph-name="Nacute" unicode="&#x143;" horiz-adv-x="970" 
d="M65 0v700h388l227 -550h20q-17 45 -26 96.5t-9 123.5v330h240v-700h-388l-227 550h-20q17 -45 26 -96.5t9 -123.5v-330h-240zM585 760h-220l110 190h280z" />
    <glyph glyph-name="nacute" unicode="&#x144;" horiz-adv-x="803" 
d="M55 0v510h220l-30 -145h20q23 82 79.5 120.5t144.5 38.5q123 0 193.5 -71.5t70.5 -197.5v-255h-220v203q0 65 -34.5 100.5t-94.5 35.5t-94.5 -35.5t-34.5 -100.5v-203h-220zM479 570h-200l90 180h250z" />
    <glyph glyph-name="uni0145" unicode="&#x145;" horiz-adv-x="970" 
d="M65 0v700h388l227 -550h20q-17 45 -26 96.5t-9 123.5v330h240v-700h-388l-227 550h-20q17 -45 26 -96.5t9 -123.5v-330h-240zM587 -88.5q31 -34.5 31 -100.5q0 -67 -29.5 -119t-81.5 -81.5t-119 -29.5v120h16q49 0 76.5 8t42.5 28q-5 -1 -15 -1q-52 0 -83.5 29.5
t-31.5 75.5q0 45 30.5 75t77.5 30q55 0 86 -34.5z" />
    <glyph glyph-name="uni0146" unicode="&#x146;" horiz-adv-x="803" 
d="M55 0v510h220l-30 -145h20q23 82 79.5 120.5t144.5 38.5q123 0 193.5 -71.5t70.5 -197.5v-255h-220v203q0 65 -34.5 100.5t-94.5 35.5t-94.5 -35.5t-34.5 -100.5v-203h-220zM491 -88.5q31 -34.5 31 -100.5q0 -67 -29.5 -119t-81.5 -81.5t-119 -29.5v120h16q49 0 76.5 8
t42.5 28q-5 -1 -15 -1q-52 0 -83.5 29.5t-31.5 75.5q0 45 30.5 75t77.5 30q55 0 86 -34.5z" />
    <glyph glyph-name="Ncaron" unicode="&#x147;" horiz-adv-x="970" 
d="M65 0v700h388l227 -550h20q-17 45 -26 96.5t-9 123.5v330h240v-700h-388l-227 550h-20q17 -45 26 -96.5t9 -123.5v-330h-240zM505 880l60 70h225l-185 -190h-200l-185 190h225z" />
    <glyph glyph-name="ncaron" unicode="&#x148;" horiz-adv-x="803" 
d="M55 0v510h220l-30 -145h20q23 82 79.5 120.5t144.5 38.5q123 0 193.5 -71.5t70.5 -197.5v-255h-220v203q0 65 -34.5 100.5t-94.5 35.5t-94.5 -35.5t-34.5 -100.5v-203h-220zM404 688l55 62h200l-170 -180h-170l-170 180h200z" />
    <glyph glyph-name="Eng" unicode="&#x14a;" horiz-adv-x="970" 
d="M665 700h240v-700q0 -127 -77.5 -198.5t-223.5 -71.5q-70 0 -129 18v185q52 -13 96 -13q70 0 98.5 20t30.5 60h-183l-227 550h-20q17 -45 26 -96.5t9 -123.5v-330h-240v700h388l227 -550h20q-17 45 -26 96.5t-9 123.5v330z" />
    <glyph glyph-name="eng" unicode="&#x14b;" horiz-adv-x="803" 
d="M378 -217v175q32 -8 62 -8q51 0 72 19.5t21 66.5v167q0 65 -34.5 100.5t-94.5 35.5t-94.5 -35.5t-34.5 -100.5v-203h-220v510h220l-30 -145h20q23 82 79.5 120.5t144.5 38.5q123 0 193.5 -71.5t70.5 -197.5v-255q0 -68 -31 -120t-91.5 -81t-144.5 -29q-53 0 -108 13z" />
    <glyph glyph-name="Omacron" unicode="&#x14c;" horiz-adv-x="1030" 
d="M255 33.5q-107 47.5 -161 130t-54 186.5t54 186.5t161 130t260 47.5t260 -47.5t161 -130t54 -186.5t-54 -186.5t-161 -130t-260 -47.5t-260 47.5zM682.5 231.5q57.5 45.5 57.5 118.5t-57.5 118.5t-167.5 45.5t-167.5 -45.5t-57.5 -118.5t57.5 -118.5t167.5 -45.5
t167.5 45.5zM760 775h-490v170h490v-170z" />
    <glyph glyph-name="omacron" unicode="&#x14d;" horiz-adv-x="794" 
d="M196.5 22q-82.5 36 -124.5 97t-42 136t42 136t124.5 97t200.5 36t200.5 -36t124.5 -97t42 -136t-42 -136t-124.5 -97t-200.5 -36t-200.5 36zM506.5 184q37.5 28 37.5 71q0 42 -38 70.5t-109 28.5t-109 -28.5t-38 -70.5q0 -43 37.5 -71t109.5 -28t109.5 28zM627 590h-460
v155h460v-155z" />
    <glyph glyph-name="Obreve" unicode="&#x14e;" horiz-adv-x="1030" 
d="M255 33.5q-107 47.5 -161 130t-54 186.5t54 186.5t161 130t260 47.5t260 -47.5t161 -130t54 -186.5t-54 -186.5t-161 -130t-260 -47.5t-260 47.5zM682.5 231.5q57.5 45.5 57.5 118.5t-57.5 118.5t-167.5 45.5t-167.5 -45.5t-57.5 -118.5t57.5 -118.5t167.5 -45.5
t167.5 45.5zM306 808q-71 53 -81 147h200q3 -19 25 -32t65 -13q44 0 65.5 13t24.5 32h200q-10 -94 -81 -147t-209 -53t-209 53z" />
    <glyph glyph-name="obreve" unicode="&#x14f;" horiz-adv-x="794" 
d="M196.5 22q-82.5 36 -124.5 97t-42 136t42 136t124.5 97t200.5 36t200.5 -36t124.5 -97t42 -136t-42 -136t-124.5 -97t-200.5 -36t-200.5 36zM506.5 184q37.5 28 37.5 71q0 42 -38 70.5t-109 28.5t-109 -28.5t-38 -70.5q0 -43 37.5 -71t109.5 -28t109.5 28zM211.5 617
q-66.5 52 -74.5 138h185q2 -22 21 -36t54 -14t54 14t21 36h185q-8 -86 -74.5 -138t-185.5 -52t-185.5 52z" />
    <glyph glyph-name="Ohungarumlaut" unicode="&#x150;" horiz-adv-x="1030" 
d="M255 33.5q-107 47.5 -161 130t-54 186.5t54 186.5t161 130t260 47.5t260 -47.5t161 -130t54 -186.5t-54 -186.5t-161 -130t-260 -47.5t-260 47.5zM682.5 231.5q57.5 45.5 57.5 118.5t-57.5 118.5t-167.5 45.5t-167.5 -45.5t-57.5 -118.5t57.5 -118.5t167.5 -45.5
t167.5 45.5zM460 760h-165l90 190h225zM735 760h-165l90 190h225z" />
    <glyph glyph-name="ohungarumlaut" unicode="&#x151;" horiz-adv-x="794" 
d="M196.5 22q-82.5 36 -124.5 97t-42 136t42 136t124.5 97t200.5 36t200.5 -36t124.5 -97t42 -136t-42 -136t-124.5 -97t-200.5 -36t-200.5 36zM506.5 184q37.5 28 37.5 71q0 42 -38 70.5t-109 28.5t-109 -28.5t-38 -70.5q0 -43 37.5 -71t109.5 -28t109.5 28zM352 570h-145
l70 180h195zM587 570h-145l70 180h195z" />
    <glyph glyph-name="OE" unicode="&#x152;" horiz-adv-x="1295" 
d="M1250 510h-440v-72h370v-165h-370v-83h440v-190h-750q-148 0 -251.5 46t-156 125.5t-52.5 178.5t52.5 178.5t156 125.5t251.5 46h750v-190zM570 190v320h-70q-105 0 -157.5 -43t-52.5 -117t52.5 -117t157.5 -43h70z" />
    <glyph glyph-name="oe" unicode="&#x153;" horiz-adv-x="1239" 
d="M1205 205h-482q14 -33 48.5 -51t89.5 -18q56 0 84 10t45 29h210q-14 -44 -54 -87t-111.5 -72.5t-172.5 -29.5q-157 0 -243 83q-84 -83 -247 -83q-106 0 -183.5 36t-118 97.5t-40.5 135.5t40.5 135.5t118 97.5t183.5 36q163 0 247 -83q86 83 250 83q105 0 182 -36.5
t117.5 -98.5t40.5 -137q0 -18 -4 -47zM723 305h277q-29 69 -140 69q-108 0 -137 -69zM488 180q36 29 36 75q0 45 -36 74.5t-101 29.5t-101 -29.5t-36 -74.5q0 -46 36 -75t101 -29t101 29z" />
    <glyph glyph-name="Racute" unicode="&#x154;" horiz-adv-x="885" 
d="M875 0h-300l-72 181q-10 25 -33 37t-60 12h-95v-230h-250v700h476q150 0 224.5 -61t74.5 -166q0 -58 -26 -105.5t-69.5 -76.5t-95.5 -31v-20q61 -1 101 -26t69 -91zM506 370q41 0 62.5 19t21.5 51t-21.5 51t-62.5 19h-206v-140h206zM520 760h-200l90 180h250z" />
    <glyph glyph-name="racute" unicode="&#x155;" horiz-adv-x="728" 
d="M55 0v510h220l-28 -135h20q44 149 199 149q112 0 172 -68.5t60 -209.5v-22h-225v3q0 52 -26 79.5t-73 27.5t-73 -28t-26 -83v-223h-220zM449 570h-200l90 180h250z" />
    <glyph glyph-name="uni0156" unicode="&#x156;" horiz-adv-x="885" 
d="M875 0h-300l-72 181q-10 25 -33 37t-60 12h-95v-230h-250v700h476q150 0 224.5 -61t74.5 -166q0 -58 -26 -105.5t-69.5 -76.5t-95.5 -31v-20q61 -1 101 -26t69 -91zM506 370q41 0 62.5 19t21.5 51t-21.5 51t-62.5 19h-206v-140h206zM532 -88.5q31 -34.5 31 -100.5
q0 -67 -29.5 -119t-81.5 -81.5t-119 -29.5v120h16q49 0 76.5 8t42.5 28q-5 -1 -15 -1q-52 0 -83.5 29.5t-31.5 75.5q0 45 30.5 75t77.5 30q55 0 86 -34.5z" />
    <glyph glyph-name="uni0157" unicode="&#x157;" horiz-adv-x="728" 
d="M55 0v510h220l-28 -135h20q44 149 199 149q112 0 172 -68.5t60 -209.5v-22h-225v3q0 52 -26 79.5t-73 27.5t-73 -28t-26 -83v-223h-220zM252 -88.5q31 -34.5 31 -100.5q0 -67 -29.5 -119t-81.5 -81.5t-119 -29.5v120h16q49 0 76.5 8t42.5 28q-5 -1 -15 -1
q-52 0 -83.5 29.5t-31.5 75.5q0 45 30.5 75t77.5 30q55 0 86 -34.5z" />
    <glyph glyph-name="Rcaron" unicode="&#x158;" horiz-adv-x="885" 
d="M875 0h-300l-72 181q-10 25 -33 37t-60 12h-95v-230h-250v700h476q150 0 224.5 -61t74.5 -166q0 -58 -26 -105.5t-69.5 -76.5t-95.5 -31v-20q61 -1 101 -26t69 -91zM506 370q41 0 62.5 19t21.5 51t-21.5 51t-62.5 19h-206v-140h206zM445 878l55 62h200l-170 -180h-170
l-170 180h200z" />
    <glyph glyph-name="rcaron" unicode="&#x159;" horiz-adv-x="728" 
d="M55 0v510h220l-28 -135h20q44 149 199 149q112 0 172 -68.5t60 -209.5v-22h-225v3q0 52 -26 79.5t-73 27.5t-73 -28t-26 -83v-223h-220zM374 688l55 62h200l-170 -180h-170l-170 180h200z" />
    <glyph glyph-name="Sacute" unicode="&#x15a;" horiz-adv-x="935" 
d="M148.5 60q-103.5 74 -103.5 199v11h255v-5q0 -44 39.5 -69t132.5 -25q96 0 132 15t36 39t-25.5 35.5t-65 15.5t-108.5 7q-119 5 -197.5 18t-136 57.5t-57.5 133.5q0 100 98 161t322 61q144 0 238 -35t138 -93.5t44 -132.5v-8h-255v8q0 31 -40 53.5t-125 22.5
q-95 0 -130 -13.5t-35 -35.5q0 -27 42.5 -34.5t139.5 -10.5q122 -3 204 -15t143 -57.5t61 -137.5q0 -106 -101.5 -172.5t-321.5 -66.5t-323.5 74zM551 760h-220l110 190h280z" />
    <glyph glyph-name="sacute" unicode="&#x15b;" horiz-adv-x="743" 
d="M116 40.5q-81 54.5 -81 144.5v5h225v-2q0 -52 114 -52q66 0 90 9.5t24 24.5q0 19 -32 24.5t-106 8.5q-93 3 -155 12t-108.5 41.5t-46.5 98.5q0 74 79 121.5t255 47.5q111 0 184.5 -27t109.5 -72t40 -100h-225q-3 22 -28 35.5t-81 13.5q-109 0 -109 -32q0 -18 32.5 -23.5
t103.5 -7.5q94 -3 156.5 -12t109 -41.5t46.5 -98.5q0 -78 -78.5 -125.5t-260.5 -47.5q-177 0 -258 54.5zM449 570h-200l90 180h250z" />
    <glyph glyph-name="Scircumflex" unicode="&#x15c;" horiz-adv-x="935" 
d="M148.5 60q-103.5 74 -103.5 199v11h255v-5q0 -44 39.5 -69t132.5 -25q96 0 132 15t36 39t-25.5 35.5t-65 15.5t-108.5 7q-119 5 -197.5 18t-136 57.5t-57.5 133.5q0 100 98 161t322 61q144 0 238 -35t138 -93.5t44 -132.5v-8h-255v8q0 31 -40 53.5t-125 22.5
q-95 0 -130 -13.5t-35 -35.5q0 -27 42.5 -34.5t139.5 -10.5q122 -3 204 -15t143 -57.5t61 -137.5q0 -106 -101.5 -172.5t-321.5 -66.5t-323.5 74zM571 950l185 -190h-225l-60 70l-60 -70h-225l185 190h200z" />
    <glyph glyph-name="scircumflex" unicode="&#x15d;" horiz-adv-x="743" 
d="M116 40.5q-81 54.5 -81 144.5v5h225v-2q0 -52 114 -52q66 0 90 9.5t24 24.5q0 19 -32 24.5t-106 8.5q-93 3 -155 12t-108.5 41.5t-46.5 98.5q0 74 79 121.5t255 47.5q111 0 184.5 -27t109.5 -72t40 -100h-225q-3 22 -28 35.5t-81 13.5q-109 0 -109 -32q0 -18 32.5 -23.5
t103.5 -7.5q94 -3 156.5 -12t109 -41.5t46.5 -98.5q0 -78 -78.5 -125.5t-260.5 -47.5q-177 0 -258 54.5zM459 750l170 -180h-200l-55 62l-55 -62h-200l170 180h170z" />
    <glyph glyph-name="Scedilla" unicode="&#x15e;" horiz-adv-x="935" 
d="M801.5 57.5q-93.5 -65.5 -295.5 -71.5l-31 -31q99 -2 142.5 -30t43.5 -72q0 -50 -43.5 -79t-141.5 -29q-89 0 -155 32v100q62 -27 142 -27q37 0 50 5t13 15t-13.5 15t-54.5 5h-87v65l32 33q-185 12 -271.5 84.5t-86.5 186.5v11h255v-5q0 -44 39.5 -69t132.5 -25
q96 0 132 15t36 39t-25.5 35.5t-65 15.5t-108.5 7q-119 5 -197.5 18t-136 57.5t-57.5 133.5q0 100 98 161t322 61q144 0 238 -35t138 -93.5t44 -132.5v-8h-255v8q0 31 -40 53.5t-125 22.5q-95 0 -130 -13.5t-35 -35.5q0 -27 42.5 -34.5t139.5 -10.5q122 -3 204 -15
t143 -57.5t61 -137.5q0 -102 -93.5 -167.5z" />
    <glyph glyph-name="scedilla" unicode="&#x15f;" horiz-adv-x="743" 
d="M641 37q-72 -47 -237 -51l-31 -31q99 -2 142.5 -30t43.5 -72q0 -50 -43.5 -79t-141.5 -29q-89 0 -155 32v100q62 -27 142 -27q37 0 50 5t13 15t-13.5 15t-54.5 5h-87v65l33 34q-139 11 -203 63.5t-64 132.5v5h225v-2q0 -52 114 -52q66 0 90 9.5t24 24.5q0 19 -32 24.5
t-106 8.5q-93 3 -155 12t-108.5 41.5t-46.5 98.5q0 74 79 121.5t255 47.5q111 0 184.5 -27t109.5 -72t40 -100h-225q-3 22 -28 35.5t-81 13.5q-109 0 -109 -32q0 -18 32.5 -23.5t103.5 -7.5q94 -3 156.5 -12t109 -41.5t46.5 -98.5q0 -75 -72 -122z" />
    <glyph glyph-name="Scaron" unicode="&#x160;" horiz-adv-x="935" 
d="M148.5 60q-103.5 74 -103.5 199v11h255v-5q0 -44 39.5 -69t132.5 -25q96 0 132 15t36 39t-25.5 35.5t-65 15.5t-108.5 7q-119 5 -197.5 18t-136 57.5t-57.5 133.5q0 100 98 161t322 61q144 0 238 -35t138 -93.5t44 -132.5v-8h-255v8q0 31 -40 53.5t-125 22.5
q-95 0 -130 -13.5t-35 -35.5q0 -27 42.5 -34.5t139.5 -10.5q122 -3 204 -15t143 -57.5t61 -137.5q0 -106 -101.5 -172.5t-321.5 -66.5t-323.5 74zM471 880l60 70h225l-185 -190h-200l-185 190h225z" />
    <glyph glyph-name="scaron" unicode="&#x161;" horiz-adv-x="743" 
d="M116 40.5q-81 54.5 -81 144.5v5h225v-2q0 -52 114 -52q66 0 90 9.5t24 24.5q0 19 -32 24.5t-106 8.5q-93 3 -155 12t-108.5 41.5t-46.5 98.5q0 74 79 121.5t255 47.5q111 0 184.5 -27t109.5 -72t40 -100h-225q-3 22 -28 35.5t-81 13.5q-109 0 -109 -32q0 -18 32.5 -23.5
t103.5 -7.5q94 -3 156.5 -12t109 -41.5t46.5 -98.5q0 -78 -78.5 -125.5t-260.5 -47.5q-177 0 -258 54.5zM374 688l55 62h200l-170 -180h-170l-170 180h200z" />
    <glyph glyph-name="uni0162" unicode="&#x162;" horiz-adv-x="770" 
d="M510 0h-91l-45 -45q99 -2 142.5 -30t43.5 -72q0 -50 -43.5 -79t-141.5 -29q-89 0 -155 32v100q62 -27 142 -27q37 0 50 5t13 15t-13.5 15t-54.5 5h-87v65l44 45h-54v495h-260v205h770v-205h-260v-495z" />
    <glyph glyph-name="uni0163" unicode="&#x163;" horiz-adv-x="670" 
d="M445 240h220v-18q0 -104 -70 -167t-210 -69l-31 -31q99 -2 142.5 -30t43.5 -72q0 -50 -43.5 -79t-141.5 -29q-89 0 -155 32v100q62 -27 142 -27q37 0 50 5t13 15t-13.5 15t-54.5 5h-87v65l34 35q-111 13 -165 62t-54 119q0 65 41.5 107t105.5 42v20h-202v155h95
q35 0 50 15.5t15 49.5v70h180v-125h270v-165h-315q-30 -18 -30 -80q0 -46 20.5 -67.5t64.5 -21.5q41 0 63 16t22 39v14z" />
    <glyph glyph-name="Tcaron" unicode="&#x164;" horiz-adv-x="770" 
d="M510 0h-250v495h-260v205h770v-205h-260v-495zM385 880l60 70h225l-185 -190h-200l-185 190h225z" />
    <glyph glyph-name="tcaron" unicode="&#x165;" horiz-adv-x="670" 
d="M138 38q-73 52 -73 133q0 65 41.5 107t105.5 42v20h-202v155h95q35 0 50 15.5t15 49.5v70h180v-125h270v-165h-315q-30 -18 -30 -80q0 -46 20.5 -67.5t64.5 -21.5q41 0 63 16t22 39v14h220v-18q0 -109 -76.5 -172.5t-228.5 -63.5q-149 0 -222 52zM560 560h-160l20 200
h190z" />
    <glyph glyph-name="Tbar" unicode="&#x166;" horiz-adv-x="770" 
d="M770 700v-205h-260v-143h140v-175h-140v-177h-250v177h-140v175h140v143h-260v205h770z" />
    <glyph glyph-name="tbar" unicode="&#x167;" horiz-adv-x="690" 
d="M465 210h210v-8q0 -62 -32 -110.5t-97 -77t-161 -28.5q-141 0 -215.5 61.5t-74.5 163.5v34h-55v80h180v35h-200v135h95q35 0 50 15.5t15 49.5v70h180v-125h270v-145h-335v-35h305v-80h-305v-15q0 -36 20.5 -55t59.5 -19q44 0 67 15t23 35v4z" />
    <glyph glyph-name="Utilde" unicode="&#x168;" horiz-adv-x="935" 
d="M159.5 78.5q-104.5 92.5 -104.5 259.5v362h250v-339q0 -78 41.5 -119t121.5 -41q79 0 120.5 41t41.5 119v339h250v-362q0 -166 -104 -259t-308 -93t-308.5 92.5zM223 755q-15 56 -15 90q0 57 30.5 88.5t85.5 31.5q41 0 75 -10t75 -27q16 -7 31 -12.5t24 -5.5q24 0 24 22
q0 10 -5 33h165q15 -56 15 -90q0 -57 -30.5 -88.5t-85.5 -31.5q-41 0 -75 10t-75 27q-16 7 -31 12.5t-24 5.5q-24 0 -24 -22q0 -10 5 -33h-165z" />
    <glyph glyph-name="utilde" unicode="&#x169;" horiz-adv-x="788" 
d="M119 56.5q-69 70.5 -69 193.5v260h220v-208q0 -62 32.5 -96.5t88.5 -34.5q57 0 89.5 34.5t32.5 96.5v208h220v-510h-220l30 145h-20q-45 -159 -217 -159q-118 0 -187 70.5zM162 565q-15 42 -15 80q0 56 28.5 85.5t82.5 29.5q28 0 54 -8t67 -25q49 -22 71 -22q13 0 20 6.5
t7 17.5t-5 31h150q15 -42 15 -80q0 -56 -28.5 -85.5t-82.5 -29.5q-28 0 -54 8t-67 25q-50 22 -71 22q-13 0 -20 -6.5t-7 -17.5t5 -31h-150z" />
    <glyph glyph-name="Umacron" unicode="&#x16a;" horiz-adv-x="935" 
d="M159.5 78.5q-104.5 92.5 -104.5 259.5v362h250v-339q0 -78 41.5 -119t121.5 -41q79 0 120.5 41t41.5 119v339h250v-362q0 -166 -104 -259t-308 -93t-308.5 92.5zM713 775h-490v170h490v-170z" />
    <glyph glyph-name="umacron" unicode="&#x16b;" horiz-adv-x="788" 
d="M119 56.5q-69 70.5 -69 193.5v260h220v-208q0 -62 32.5 -96.5t88.5 -34.5q57 0 89.5 34.5t32.5 96.5v208h220v-510h-220l30 145h-20q-45 -159 -217 -159q-118 0 -187 70.5zM622 590h-460v155h460v-155z" />
    <glyph glyph-name="Ubreve" unicode="&#x16c;" horiz-adv-x="935" 
d="M159.5 78.5q-104.5 92.5 -104.5 259.5v362h250v-339q0 -78 41.5 -119t121.5 -41q79 0 120.5 41t41.5 119v339h250v-362q0 -166 -104 -259t-308 -93t-308.5 92.5zM259 808q-71 53 -81 147h200q3 -19 25 -32t65 -13q44 0 65.5 13t24.5 32h200q-10 -94 -81 -147t-209 -53
t-209 53z" />
    <glyph glyph-name="ubreve" unicode="&#x16d;" horiz-adv-x="788" 
d="M119 56.5q-69 70.5 -69 193.5v260h220v-208q0 -62 32.5 -96.5t88.5 -34.5q57 0 89.5 34.5t32.5 96.5v208h220v-510h-220l30 145h-20q-45 -159 -217 -159q-118 0 -187 70.5zM206.5 617q-66.5 52 -74.5 138h185q2 -22 21 -36t54 -14t54 14t21 36h185q-8 -86 -74.5 -138
t-185.5 -52t-185.5 52z" />
    <glyph glyph-name="Uring" unicode="&#x16e;" horiz-adv-x="935" 
d="M159.5 78.5q-104.5 92.5 -104.5 259.5v362h250v-339q0 -78 41.5 -119t121.5 -41q79 0 120.5 41t41.5 119v339h250v-362q0 -166 -104 -259t-308 -93t-308.5 92.5zM334.5 778q-46.5 38 -46.5 97t46.5 97t133.5 38t133.5 -38t46.5 -97t-46.5 -97t-133.5 -38t-133.5 38z
M513 850q15 10 15 25t-15 25t-45 10t-45 -10t-15 -25t15 -25t45 -10t45 10z" />
    <glyph glyph-name="uring" unicode="&#x16f;" horiz-adv-x="788" 
d="M119 56.5q-69 70.5 -69 193.5v260h220v-208q0 -62 32.5 -96.5t88.5 -34.5q57 0 89.5 34.5t32.5 96.5v208h220v-510h-220l30 145h-20q-45 -159 -217 -159q-118 0 -187 70.5zM270.5 592q-43.5 37 -43.5 93t43.5 93t121.5 37t121.5 -37t43.5 -93t-43.5 -93t-121.5 -37
t-121.5 37zM433 660q14 10 14 25t-14 25t-41 10t-41 -10t-14 -25t14 -25t41 -10t41 10z" />
    <glyph glyph-name="Uhungarumlaut" unicode="&#x170;" horiz-adv-x="935" 
d="M159.5 78.5q-104.5 92.5 -104.5 259.5v362h250v-339q0 -78 41.5 -119t121.5 -41q79 0 120.5 41t41.5 119v339h250v-362q0 -166 -104 -259t-308 -93t-308.5 92.5zM413 760h-165l90 190h225zM688 760h-165l90 190h225z" />
    <glyph glyph-name="uhungarumlaut" unicode="&#x171;" horiz-adv-x="788" 
d="M119 56.5q-69 70.5 -69 193.5v260h220v-208q0 -62 32.5 -96.5t88.5 -34.5q57 0 89.5 34.5t32.5 96.5v208h220v-510h-220l30 145h-20q-45 -159 -217 -159q-118 0 -187 70.5zM347 570h-145l70 180h195zM582 570h-145l70 180h195z" />
    <glyph glyph-name="Uogonek" unicode="&#x172;" horiz-adv-x="935" 
d="M630 700h250v-362q0 -206 -162 -300q-67 -39 -89 -64.5t-22 -45.5t15.5 -31.5t47.5 -11.5q20 0 47 6v-130q-44 -16 -95 -16q-88 0 -131.5 34.5t-43.5 92.5q0 32 15 62t46 53q-13 -1 -40 -1q-204 0 -308.5 92.5t-104.5 259.5v362h250v-339q0 -78 41.5 -119t121.5 -41
q79 0 120.5 41t41.5 119v339z" />
    <glyph glyph-name="uogonek" unicode="&#x173;" horiz-adv-x="788" 
d="M733 0q-71 -15 -95.5 -32t-24.5 -39q0 -44 70 -44q23 0 50 6v-130q-44 -16 -100 -16q-87 0 -133.5 39t-46.5 102q0 75 61 118l29 141h-20q-45 -159 -217 -159q-118 0 -187 70.5t-69 193.5v260h220v-208q0 -62 32.5 -96.5t88.5 -34.5q57 0 89.5 34.5t32.5 96.5v208h220
v-510z" />
    <glyph glyph-name="Wcircumflex" unicode="&#x174;" horiz-adv-x="1160" 
d="M185 0l-170 700h270l63 -358q14 -83 14 -181v-11h20v11q0 55 2.5 96.5t10.5 84.5l48 248h274l48 -248q8 -43 10.5 -84.5t2.5 -96.5v-11h20v11q0 98 14 181l63 358h270l-170 -700h-314l-50 219q-14 60 -17.5 95.5t-3.5 120.5v5h-20v-5q0 -85 -3.5 -120.5t-17.5 -95.5
l-50 -219h-314zM680 950l185 -190h-225l-60 70l-60 -70h-225l185 190h200z" />
    <glyph glyph-name="wcircumflex" unicode="&#x175;" horiz-adv-x="964" 
d="M134 0l-134 510h240l39 -238q11 -64 11 -142v-10h20v10q0 61 14 142l40 238h236l40 -238q14 -81 14 -142v-10h20v10q0 78 11 142l39 238h240l-134 -510h-277l-46 198q-9 36 -12 78t-3 109v5h-20v-5q0 -67 -3 -109t-12 -78l-46 -198h-277zM567 750l170 -180h-200l-55 62
l-55 -62h-200l170 180h170z" />
    <glyph glyph-name="Ycircumflex" unicode="&#x176;" horiz-adv-x="842" 
d="M296 0v208l-301 492h285l90 -167q24 -43 32.5 -79.5t8.5 -73.5v-20h20v20q0 37 8.5 73.5t32.5 79.5l90 167h285l-301 -492v-208h-250zM521 950l185 -190h-225l-60 70l-60 -70h-225l185 190h200z" />
    <glyph glyph-name="ycircumflex" unicode="&#x177;" horiz-adv-x="714" 
d="M464 510h255l-224 -487q-58 -125 -139 -179t-198 -54q-38 0 -66 5t-57 18v180q45 -18 94 -18q38 0 64.5 6.5t43.5 22.5l-242 506h255l69 -215q28 -89 28 -140v-5h20v5q0 51 28 140zM442 750l170 -180h-200l-55 62l-55 -62h-200l170 180h170z" />
    <glyph glyph-name="Ydieresis" unicode="&#x178;" horiz-adv-x="842" 
d="M296 0v208l-301 492h285l90 -167q24 -43 32.5 -79.5t8.5 -73.5v-20h20v20q0 37 8.5 73.5t32.5 79.5l90 167h285l-301 -492v-208h-250zM178 788q-32 28 -32 72t32 72t88 28t88 -28t32 -72t-32 -72t-88 -28t-88 28zM488 788q-32 28 -32 72t32 72t88 28t88 -28t32 -72
t-32 -72t-88 -28t-88 28z" />
    <glyph glyph-name="Zacute" unicode="&#x179;" horiz-adv-x="845" 
d="M805 0h-760v180l403 300v20h-393v200h740v-180l-403 -300v-20h413v-200zM505 760h-220l110 190h280z" />
    <glyph glyph-name="zacute" unicode="&#x17a;" horiz-adv-x="677" 
d="M647 0h-612v155l274 160v20h-264v175h592v-155l-274 -160v-20h284v-175zM416 570h-200l90 180h250z" />
    <glyph glyph-name="Zdotaccent" unicode="&#x17b;" horiz-adv-x="845" 
d="M805 0h-760v180l403 300v20h-393v200h740v-180l-403 -300v-20h413v-200zM322.5 787.5q-37.5 32.5 -37.5 82.5t37.5 82.5t102.5 32.5t102.5 -32.5t37.5 -82.5t-37.5 -82.5t-102.5 -32.5t-102.5 32.5z" />
    <glyph glyph-name="zdotaccent" unicode="&#x17c;" horiz-adv-x="677" 
d="M647 0h-612v155l274 160v20h-264v175h592v-155l-274 -160v-20h284v-175zM253.5 594.5q-32.5 29.5 -32.5 75.5t32.5 75.5t87.5 29.5t87.5 -29.5t32.5 -75.5t-32.5 -75.5t-87.5 -29.5t-87.5 29.5z" />
    <glyph glyph-name="Zcaron" unicode="&#x17d;" horiz-adv-x="845" 
d="M805 0h-760v180l403 300v20h-393v200h740v-180l-403 -300v-20h413v-200zM425 880l60 70h225l-185 -190h-200l-185 190h225z" />
    <glyph glyph-name="zcaron" unicode="&#x17e;" horiz-adv-x="677" 
d="M647 0h-612v155l274 160v20h-264v175h592v-155l-274 -160v-20h284v-175zM341 688l55 62h200l-170 -180h-170l-170 180h200z" />
    <glyph glyph-name="uni018F" unicode="&#x18f;" horiz-adv-x="1030" 
d="M777.5 666.5q105.5 -47.5 159 -130t53.5 -186.5t-53.5 -186.5t-159 -130t-255.5 -47.5q-157 0 -265.5 47.5t-162.5 129.5t-54 187q0 36 6 73h689q-22 48 -75.5 74.5t-137.5 26.5q-91 0 -141 -18t-84 -48h-240q35 108 146 182t319 74q150 0 255.5 -47.5zM659.5 203
q53.5 27 76.5 75h-443q43 -102 229 -102q84 0 137.5 27z" />
    <glyph glyph-name="florin" unicode="&#x192;" horiz-adv-x="811" 
d="M590.5 489q-33.5 -25 -48.5 -83h183l-39 -190h-183l-29 -139q-53 -261 -338 -261q-47 0 -82.5 7.5t-73.5 21.5l41 184q36 -13 83 -13q66 0 100.5 28t47.5 94l16 78h-127l39 190h127l10 47q53 261 338 261q47 0 82.5 -7.5t73.5 -21.5l-41 -184q-36 13 -83 13
q-63 0 -96.5 -25z" />
    <glyph glyph-name="uni01F4" unicode="&#x1f4;" horiz-adv-x="1005" 
d="M442 230v145h508v-375h-215l41 135h-20q-77 -149 -297 -149q-126 0 -221.5 48t-146.5 131t-51 185q0 104 53.5 186.5t157.5 130t250 47.5q211 0 326 -81.5t143 -217.5h-250q-21 48 -75 76t-143 28q-105 0 -161 -46.5t-56 -122.5q0 -79 56 -126.5t163 -47.5q137 0 196 54
h-258zM581 760h-220l110 190h280z" />
    <glyph glyph-name="uni01F5" unicode="&#x1f5;" horiz-adv-x="767" 
d="M89 -173q-84 47 -84 128q0 98 132 122v17h-31q-61 0 -61 45t61 45h26v17q-39 14 -63 50.5t-24 82.5q0 89 80 139.5t267 50.5h110q35 0 35 28q0 17 -18 42h198q15 -16 20 -27t5 -24q0 -23 -20 -37.5t-62 -14.5h-55v-17q71 -22 99 -59t28 -90q0 -81 -73 -124.5t-249 -43.5
h-181q-12 0 -18 -5t-6 -14t6 -14t18 -5h252q95 0 156.5 -22t90.5 -59t29 -81q0 -83 -84 -130t-293 -47q-207 0 -291 47zM498 285.5q29 13.5 29 39.5t-28.5 40t-107.5 14t-107.5 -14t-28.5 -40t29 -39.5t107 -13.5t107 13.5zM485 -70q35 5 46 13t11 22q0 13 -11 21.5t-46 13
t-104 4.5t-104 -4.5t-46 -13t-11 -21.5q0 -14 11 -22t46 -13t104 -5t104 5zM457 570h-200l90 180h250z" />
    <glyph glyph-name="uni0218" unicode="&#x218;" horiz-adv-x="935" 
d="M148.5 60q-103.5 74 -103.5 199v11h255v-5q0 -44 39.5 -69t132.5 -25q96 0 132 15t36 39t-25.5 35.5t-65 15.5t-108.5 7q-119 5 -197.5 18t-136 57.5t-57.5 133.5q0 100 98 161t322 61q144 0 238 -35t138 -93.5t44 -132.5v-8h-255v8q0 31 -40 53.5t-125 22.5
q-95 0 -130 -13.5t-35 -35.5q0 -27 42.5 -34.5t139.5 -10.5q122 -3 204 -15t143 -57.5t61 -137.5q0 -106 -101.5 -172.5t-321.5 -66.5t-323.5 74zM573 -88.5q31 -34.5 31 -100.5q0 -67 -29.5 -119t-81.5 -81.5t-119 -29.5v120h16q49 0 76.5 8t42.5 28q-5 -1 -15 -1
q-52 0 -83.5 29.5t-31.5 75.5q0 45 30.5 75t77.5 30q55 0 86 -34.5z" />
    <glyph glyph-name="uni0219" unicode="&#x219;" horiz-adv-x="743" 
d="M116 40.5q-81 54.5 -81 144.5v5h225v-2q0 -52 114 -52q66 0 90 9.5t24 24.5q0 19 -32 24.5t-106 8.5q-93 3 -155 12t-108.5 41.5t-46.5 98.5q0 74 79 121.5t255 47.5q111 0 184.5 -27t109.5 -72t40 -100h-225q-3 22 -28 35.5t-81 13.5q-109 0 -109 -32q0 -18 32.5 -23.5
t103.5 -7.5q94 -3 156.5 -12t109 -41.5t46.5 -98.5q0 -78 -78.5 -125.5t-260.5 -47.5q-177 0 -258 54.5zM471 -88.5q31 -34.5 31 -100.5q0 -67 -29.5 -119t-81.5 -81.5t-119 -29.5v120h16q49 0 76.5 8t42.5 28q-5 -1 -15 -1q-52 0 -83.5 29.5t-31.5 75.5q0 45 30.5 75
t77.5 30q55 0 86 -34.5z" />
    <glyph glyph-name="uni021A" unicode="&#x21a;" horiz-adv-x="770" 
d="M510 0h-250v495h-260v205h770v-205h-260v-495zM472 -88.5q31 -34.5 31 -100.5q0 -67 -29.5 -119t-81.5 -81.5t-119 -29.5v120h16q49 0 76.5 8t42.5 28q-5 -1 -15 -1q-52 0 -83.5 29.5t-31.5 75.5q0 45 30.5 75t77.5 30q55 0 86 -34.5z" />
    <glyph glyph-name="uni021B" unicode="&#x21b;" horiz-adv-x="670" 
d="M138 38q-73 52 -73 133q0 65 41.5 107t105.5 42v20h-202v155h95q35 0 50 15.5t15 49.5v70h180v-125h270v-165h-315q-30 -18 -30 -80q0 -46 20.5 -67.5t64.5 -21.5q41 0 63 16t22 39v14h220v-18q0 -109 -76.5 -172.5t-228.5 -63.5q-149 0 -222 52zM452 -88.5
q31 -34.5 31 -100.5q0 -67 -29.5 -119t-81.5 -81.5t-119 -29.5v120h16q49 0 76.5 8t42.5 28q-5 -1 -15 -1q-52 0 -83.5 29.5t-31.5 75.5q0 45 30.5 75t77.5 30q55 0 86 -34.5z" />
    <glyph glyph-name="uni0232" unicode="&#x232;" horiz-adv-x="842" 
d="M296 0v208l-301 492h285l90 -167q24 -43 32.5 -79.5t8.5 -73.5v-20h20v20q0 37 8.5 73.5t32.5 79.5l90 167h285l-301 -492v-208h-250zM666 775h-490v170h490v-170z" />
    <glyph glyph-name="uni0233" unicode="&#x233;" horiz-adv-x="714" 
d="M464 510h255l-224 -487q-58 -125 -139 -179t-198 -54q-38 0 -66 5t-57 18v180q45 -18 94 -18q38 0 64.5 6.5t43.5 22.5l-242 506h255l69 -215q28 -89 28 -140v-5h20v5q0 51 28 140zM587 590h-460v155h460v-155z" />
    <glyph glyph-name="uni0237" unicode="&#x237;" horiz-adv-x="370" 
d="M-3 -205q-28 5 -57 18v175q45 -18 87 -18q83 0 83 66v252q0 26 -10.5 36t-36.5 10q-25 0 -48 -10v180q47 20 124 20q70 0 109 -15t55.5 -47.5t16.5 -89.5v-340q0 -116 -65.5 -179t-191.5 -63q-38 0 -66 5z" />
    <glyph glyph-name="uni0244" unicode="&#x244;" horiz-adv-x="995" 
d="M1020 547v-175h-110v-34q0 -166 -104 -259t-308 -93t-308.5 92.5t-104.5 259.5v34h-110v175h110v153h250v-153h325v153h250v-153h110zM660 372h-325v-11q0 -78 41.5 -119t121.5 -41q79 0 120.5 41t41.5 119v11z" />
    <glyph glyph-name="uni0259" unicode="&#x259;" horiz-adv-x="780" 
d="M586.5 488q80.5 -36 122 -97t41.5 -136t-41.5 -136t-123 -97t-195.5 -36q-115 0 -196 36t-122.5 98t-41.5 138q0 23 4 52h502q-34 59 -147 59q-59 0 -88.5 -8t-51.5 -21h-210q15 42 55.5 84t115.5 71t183 29q113 0 193.5 -36zM536 200h-292q34 -59 146 -59t146 59z" />
    <glyph glyph-name="uni0289" unicode="&#x289;" horiz-adv-x="838" 
d="M848 410v-130h-90v-280h-220l30 145h-20q-45 -159 -217 -159q-118 0 -187 70.5t-69 193.5v30h-90v130h90v100h220v-100h243v100h220v-100h90zM499 199.5q32 28.5 38 80.5h-241q6 -52 37.5 -80.5t82.5 -28.5t83 28.5z" />
    <glyph glyph-name="uni02BC" unicode="&#x2bc;" horiz-adv-x="290" 
d="M229 745.5q31 -34.5 31 -100.5q0 -74 -29 -129.5t-81.5 -85.5t-119.5 -30v120h16q56 0 84.5 10.5t41.5 40.5q-7 -1 -22 -1q-52 0 -83.5 29.5t-31.5 75.5q0 45 30.5 75t77.5 30q55 0 86 -34.5z" />
    <glyph glyph-name="circumflex" unicode="&#x2c6;" horiz-adv-x="570" 
d="M370 750l170 -180h-200l-55 62l-55 -62h-200l170 180h170z" />
    <glyph glyph-name="caron" unicode="&#x2c7;" horiz-adv-x="570" 
d="M285 688l55 62h200l-170 -180h-170l-170 180h200z" />
    <glyph glyph-name="breve" unicode="&#x2d8;" horiz-adv-x="580" 
d="M104.5 617q-66.5 52 -74.5 138h185q2 -22 21 -36t54 -14t54 14t21 36h185q-8 -86 -74.5 -138t-185.5 -52t-185.5 52z" />
    <glyph glyph-name="dotaccent" unicode="&#x2d9;" horiz-adv-x="300" 
d="M62.5 594.5q-32.5 29.5 -32.5 75.5t32.5 75.5t87.5 29.5t87.5 -29.5t32.5 -75.5t-32.5 -75.5t-87.5 -29.5t-87.5 29.5z" />
    <glyph glyph-name="ring" unicode="&#x2da;" horiz-adv-x="390" 
d="M73.5 592q-43.5 37 -43.5 93t43.5 93t121.5 37t121.5 -37t43.5 -93t-43.5 -93t-121.5 -37t-121.5 37zM236 660q14 10 14 25t-14 25t-41 10t-41 -10t-14 -25t14 -25t41 -10t41 10z" />
    <glyph glyph-name="ogonek" unicode="&#x2db;" horiz-adv-x="330" 
d="M73.5 -220.5q-43.5 34.5 -43.5 92.5q0 48 33 89.5t102 58.5l135 -20q-64 -19 -87 -36.5t-23 -37.5q0 -18 15.5 -29.5t47.5 -11.5q20 0 47 6v-130q-44 -16 -95 -16q-88 0 -131.5 34.5z" />
    <glyph glyph-name="tilde" unicode="&#x2dc;" horiz-adv-x="550" 
d="M45 565q-15 42 -15 80q0 56 28.5 85.5t82.5 29.5q28 0 54 -8t67 -25q49 -22 71 -22q13 0 20 6.5t7 17.5t-5 31h150q15 -42 15 -80q0 -56 -28.5 -85.5t-82.5 -29.5q-28 0 -54 8t-67 25q-50 22 -71 22q-13 0 -20 -6.5t-7 -17.5t5 -31h-150z" />
    <glyph glyph-name="hungarumlaut" unicode="&#x2dd;" horiz-adv-x="560" 
d="M175 570h-145l70 180h195zM410 570h-145l70 180h195z" />
    <glyph glyph-name="gravecomb" unicode="&#x300;" 
d="M-30 570h-200l-140 180h250z" />
    <glyph glyph-name="acutecomb" unicode="&#x301;" 
d="M-170 570h-200l90 180h250z" />
    <glyph glyph-name="uni0302" unicode="&#x302;" 
d="M-200 750l170 -180h-200l-55 62l-55 -62h-200l170 180h170z" />
    <glyph glyph-name="tildecomb" unicode="&#x303;" 
d="M-505 565q-15 42 -15 80q0 56 28.5 85.5t82.5 29.5q28 0 54 -8t67 -25q49 -22 71 -22q13 0 20 6.5t7 17.5t-5 31h150q15 -42 15 -80q0 -56 -28.5 -85.5t-82.5 -29.5q-28 0 -54 8t-67 25q-50 22 -71 22q-13 0 -20 -6.5t-7 -17.5t5 -31h-150z" />
    <glyph glyph-name="uni0304" unicode="&#x304;" 
d="M-30 590h-460v155h460v-155z" />
    <glyph glyph-name="uni0306" unicode="&#x306;" 
d="M-475.5 617q-66.5 52 -74.5 138h185q2 -22 21 -36t54 -14t54 14t21 36h185q-8 -86 -74.5 -138t-185.5 -52t-185.5 52z" />
    <glyph glyph-name="uni0307" unicode="&#x307;" 
d="M-237.5 594.5q-32.5 29.5 -32.5 75.5t32.5 75.5t87.5 29.5t87.5 -29.5t32.5 -75.5t-32.5 -75.5t-87.5 -29.5t-87.5 29.5z" />
    <glyph glyph-name="uni0308" unicode="&#x308;" 
d="M-471.5 605.5q-28.5 25.5 -28.5 64.5t28.5 64.5t76.5 25.5t76.5 -25.5t28.5 -64.5t-28.5 -64.5t-76.5 -25.5t-76.5 25.5zM-211.5 605.5q-28.5 25.5 -28.5 64.5t28.5 64.5t76.5 25.5t76.5 -25.5t28.5 -64.5t-28.5 -64.5t-76.5 -25.5t-76.5 25.5z" />
    <glyph glyph-name="uni030A" unicode="&#x30a;" 
d="M-316.5 592q-43.5 37 -43.5 93t43.5 93t121.5 37t121.5 -37t43.5 -93t-43.5 -93t-121.5 -37t-121.5 37zM-154 660q14 10 14 25t-14 25t-41 10t-41 -10t-14 -25t14 -25t41 -10t41 10z" />
    <glyph glyph-name="uni030B" unicode="&#x30b;" 
d="M-385 570h-145l70 180h195zM-150 570h-145l70 180h195z" />
    <glyph glyph-name="uni030C" unicode="&#x30c;" 
d="M-285 688l55 62h200l-170 -180h-170l-170 180h200z" />
    <glyph glyph-name="uni0312" unicode="&#x312;" 
d="M-46 800q-49 0 -76.5 -8t-42.5 -28q5 1 15 1q52 0 83.5 -29.5t31.5 -75.5q0 -45 -30.5 -75t-77.5 -30q-55 0 -86 34.5t-31 100.5q0 67 29.5 119t81.5 81.5t119 29.5v-120h-16z" />
    <glyph glyph-name="uni0326" unicode="&#x326;" 
d="M-61 -88.5q31 -34.5 31 -100.5q0 -67 -29.5 -119t-81.5 -81.5t-119 -29.5v120h16q49 0 76.5 8t42.5 28q-5 -1 -15 -1q-52 0 -83.5 29.5t-31.5 75.5q0 45 30.5 75t77.5 30q55 0 86 -34.5z" />
    <glyph glyph-name="uni0327" unicode="&#x327;" 
d="M-216 -45q99 -2 142.5 -30t43.5 -72q0 -50 -43.5 -79t-141.5 -29q-89 0 -155 32v100q62 -27 142 -27q37 0 50 5t13 15t-13.5 15t-54.5 5h-87v65l64 66h106z" />
    <glyph glyph-name="uni0328" unicode="&#x328;" 
d="M-256.5 -220.5q-43.5 34.5 -43.5 92.5q0 48 33 89.5t102 58.5l135 -20q-64 -19 -87 -36.5t-23 -37.5q0 -18 15.5 -29.5t47.5 -11.5q20 0 47 6v-130q-44 -16 -95 -16q-88 0 -131.5 34.5z" />
    <glyph glyph-name="uni0401" unicode="&#x401;" horiz-adv-x="830" 
d="M785 700v-190h-470v-72h400v-165h-400v-83h470v-190h-720v700h720zM182 788q-32 28 -32 72t32 72t88 28t88 -28t32 -72t-32 -72t-88 -28t-88 28zM492 788q-32 28 -32 72t32 72t88 28t88 -28t32 -72t-32 -72t-88 -28t-88 28z" />
    <glyph glyph-name="uni0402" unicode="&#x402;" horiz-adv-x="1050" 
d="M872 392.5q77 -37.5 117.5 -103t40.5 -149.5q0 -82 -40 -148t-115 -104t-176 -38q-45 0 -75.5 3t-58.5 10v185q43 -8 81 -8q66 0 100 27t34 73t-37 73t-117 27q-51 0 -85.5 -8.5t-60.5 -28.5v-203h-250v505h-220v195h770v-195h-300v-117q39 22 89.5 32t120.5 10
q105 0 182 -37.5z" />
    <glyph glyph-name="uni0403" unicode="&#x403;" horiz-adv-x="750" 
d="M315 0h-250v700h660v-205h-410v-495zM470 760h-200l90 180h250z" />
    <glyph glyph-name="uni0404" unicode="&#x404;" horiz-adv-x="1011" 
d="M736 275h240q-12 -81 -69 -146.5t-158 -104t-241 -38.5q-150 0 -255.5 47.5t-159 130t-53.5 186.5t53.5 186.5t159 130t255.5 47.5q140 0 241 -38.5t158 -104t69 -146.5h-240q-47 99 -228 99q-81 0 -134 -25t-76 -70h293v-155h-295q23 -47 76.5 -72.5t135.5 -25.5
q181 0 228 99z" />
    <glyph glyph-name="uni0405" unicode="&#x405;" horiz-adv-x="935" 
d="M148.5 60q-103.5 74 -103.5 199v11h255v-5q0 -44 39.5 -69t132.5 -25q96 0 132 15t36 39t-25.5 35.5t-65 15.5t-108.5 7q-119 5 -197.5 18t-136 57.5t-57.5 133.5q0 100 98 161t322 61q144 0 238 -35t138 -93.5t44 -132.5v-8h-255v8q0 31 -40 53.5t-125 22.5
q-95 0 -130 -13.5t-35 -35.5q0 -27 42.5 -34.5t139.5 -10.5q122 -3 204 -15t143 -57.5t61 -137.5q0 -106 -101.5 -172.5t-321.5 -66.5t-323.5 74z" />
    <glyph glyph-name="uni0406" unicode="&#x406;" horiz-adv-x="730" 
d="M685 0h-640v195h195v310h-195v195h640v-195h-195v-310h195v-195z" />
    <glyph glyph-name="uni0407" unicode="&#x407;" horiz-adv-x="730" 
d="M685 0h-640v195h195v310h-195v195h640v-195h-195v-310h195v-195zM158.5 795.5q-28.5 25.5 -28.5 64.5t28.5 64.5t76.5 25.5t76.5 -25.5t28.5 -64.5t-28.5 -64.5t-76.5 -25.5t-76.5 25.5zM418.5 795.5q-28.5 25.5 -28.5 64.5t28.5 64.5t76.5 25.5t76.5 -25.5t28.5 -64.5
t-28.5 -64.5t-76.5 -25.5t-76.5 25.5z" />
    <glyph glyph-name="uni0408" unicode="&#x408;" horiz-adv-x="805" 
d="M112.5 67q-92.5 81 -92.5 226v17h250v-7q0 -54 29.5 -83t85.5 -29t85.5 29t29.5 83v192h-380v205h630v-403q0 -147 -92 -229t-273 -82q-180 0 -272.5 81z" />
    <glyph glyph-name="uni0409" unicode="&#x409;" horiz-adv-x="1425" 
d="M1101 490q150 0 224.5 -64.5t74.5 -180.5t-74.5 -180.5t-224.5 -64.5h-451v495h-226l-28 -250q-15 -130 -78.5 -194.5t-192.5 -64.5q-65 0 -110 17v205q22 -7 46 -7q47 0 68 19t27 68l49 412h695v-210h201zM1081 190q34 0 51.5 14.5t17.5 40.5t-17.5 40.5t-51.5 14.5
h-196v-110h196z" />
    <glyph glyph-name="uni040A" unicode="&#x40a;" horiz-adv-x="1395" 
d="M1071 490q150 0 224.5 -64.5t74.5 -180.5t-74.5 -180.5t-224.5 -64.5h-451v290h-305v-290h-250v700h250v-210h305v210h250v-210h201zM1051 190q34 0 51.5 14.5t17.5 40.5t-17.5 40.5t-51.5 14.5h-196v-110h196z" />
    <glyph glyph-name="uni040B" unicode="&#x40b;" horiz-adv-x="1050" 
d="M938 347.5q82 -82.5 82 -248.5v-99h-250v110q0 125 -144 125q-51 0 -85.5 -8.5t-60.5 -28.5v-198h-250v505h-220v195h770v-195h-300v-117q39 22 89.5 32t120.5 10q166 0 248 -82.5z" />
    <glyph glyph-name="uni040C" unicode="&#x40c;" horiz-adv-x="860" 
d="M569 365l291 -365h-315l-230 325v-325h-250v700h250v-305l220 305h305zM505 760h-200l90 180h250z" />
    <glyph glyph-name="uni040E" unicode="&#x40e;" horiz-adv-x="827" 
d="M552 700h285l-269 -498q-58 -107 -137.5 -161.5t-196.5 -54.5q-42 0 -74 4.5t-65 15.5v205q51 -10 92 -10q36 0 59 6.5t36 21.5l-287 471h290l85 -164q27 -52 38 -93t11 -83v-15h20v15q0 42 9.5 82.5t32.5 93.5zM215.5 807.5q-71.5 52.5 -81.5 147.5h200q4 -20 26.5 -35
t68.5 -15q47 0 69 15t26 35h200q-10 -95 -81.5 -147.5t-213.5 -52.5t-213.5 52.5z" />
    <glyph glyph-name="uni040F" unicode="&#x40f;" horiz-adv-x="950" 
d="M635 700h250v-700h-290v-165h-240v165h-290v700h250v-500h320v500z" />
    <glyph glyph-name="uni0410" unicode="&#x410;" horiz-adv-x="904" 
d="M904 0h-265l-34 90h-306l-34 -90h-265l304 700h296zM371 280h162l-29 77q-25 64 -33.5 105t-8.5 83v5h-20v-5q0 -42 -8.5 -83t-33.5 -105z" />
    <glyph glyph-name="uni0411" unicode="&#x411;" horiz-adv-x="875" 
d="M576 455q136 0 205 -60t69 -167q0 -108 -69 -168t-205 -60h-511v700h745v-185h-515v-60h281zM534 185q32 0 49 15t17 40t-17 40t-49 15h-229v-110h229z" />
    <glyph glyph-name="uni0412" unicode="&#x412;" horiz-adv-x="901" 
d="M703 359q88 -7 133 -52t45 -117q0 -190 -263 -190h-553v700h559q118 0 175 -44t57 -120q0 -66 -39 -107t-114 -48v-22zM305 515v-80h249q26 0 39 10.5t13 29.5t-13 29.5t-39 10.5h-249zM577 185q26 0 40 12t14 33t-14 33t-40 12h-272v-90h272z" />
    <glyph glyph-name="uni0413" unicode="&#x413;" horiz-adv-x="750" 
d="M315 0h-250v700h660v-205h-410v-495z" />
    <glyph glyph-name="uni0414" unicode="&#x414;" horiz-adv-x="1010" 
d="M885 200h105v-365h-240v165h-495v-165h-240v365h43q39 0 61 21.5t27 62.5l49 416h690v-500zM645 200v300h-236l-19 -189q-8 -84 -53 -111h308z" />
    <glyph glyph-name="uni0415" unicode="&#x415;" horiz-adv-x="830" 
d="M785 700v-190h-470v-72h400v-165h-400v-83h470v-190h-720v700h720z" />
    <glyph glyph-name="uni0416" unicode="&#x416;" horiz-adv-x="1270" 
d="M997 365l263 -365h-295l-210 322v-322h-240v322l-210 -322h-295l263 365l-243 335h285l200 -302v302h240v-302l200 302h285z" />
    <glyph glyph-name="uni0417" unicode="&#x417;" horiz-adv-x="851" 
d="M679 356q71 -6 111.5 -48.5t40.5 -107.5q0 -95 -96 -154.5t-312 -59.5q-215 0 -311.5 67.5t-96.5 186.5v5h250v-5q0 -69 158 -69q89 0 121 14t32 39t-30.5 39t-112.5 14h-148v155h148q77 0 105 12.5t28 35.5t-30 36t-113 13t-115.5 -17.5t-32.5 -48.5v-3h-250v9
q0 114 94 179.5t304 65.5q142 0 231 -27t128 -70.5t39 -94.5q0 -63 -36 -101t-106 -43v-22z" />
    <glyph glyph-name="uni0418" unicode="&#x418;" horiz-adv-x="970" 
d="M65 0v700h240v-330q0 -72 -9 -123.5t-26 -96.5h20l227 550h388v-700h-240v330q0 72 9 123.5t26 96.5h-20l-227 -550h-388z" />
    <glyph glyph-name="uni0419" unicode="&#x419;" horiz-adv-x="970" 
d="M65 0v700h240v-330q0 -72 -9 -123.5t-26 -96.5h20l227 550h388v-700h-240v330q0 72 9 123.5t26 96.5h-20l-227 -550h-388zM291.5 807.5q-71.5 52.5 -81.5 147.5h200q4 -20 26.5 -35t68.5 -15q47 0 69 15t26 35h200q-10 -95 -81.5 -147.5t-213.5 -52.5t-213.5 52.5z" />
    <glyph glyph-name="uni041A" unicode="&#x41a;" horiz-adv-x="860" 
d="M569 365l291 -365h-315l-230 325v-325h-250v700h250v-305l220 305h305z" />
    <glyph glyph-name="uni041B" unicode="&#x41b;" horiz-adv-x="990" 
d="M15 3v205q22 -7 46 -7q47 0 68 19t27 68l49 412h720v-700h-250v495h-251l-28 -250q-15 -130 -78.5 -194.5t-192.5 -64.5q-65 0 -110 17z" />
    <glyph glyph-name="uni041C" unicode="&#x41c;" horiz-adv-x="1110" 
d="M65 0v700h385l74 -312q21 -87 21 -116v-12h20v12q0 29 21 116l74 312h385v-700h-240v310q0 83 7.5 137.5t22.5 102.5h-20l-120 -440h-280l-120 440h-20q15 -48 22.5 -102.5t7.5 -137.5v-310h-240z" />
    <glyph glyph-name="uni041D" unicode="&#x41d;" horiz-adv-x="960" 
d="M645 465v235h250v-700h-250v260h-330v-260h-250v700h250v-235h330z" />
    <glyph glyph-name="uni041E" unicode="&#x41e;" horiz-adv-x="1030" 
d="M255 33.5q-107 47.5 -161 130t-54 186.5t54 186.5t161 130t260 47.5t260 -47.5t161 -130t54 -186.5t-54 -186.5t-161 -130t-260 -47.5t-260 47.5zM682.5 231.5q57.5 45.5 57.5 118.5t-57.5 118.5t-167.5 45.5t-167.5 -45.5t-57.5 -118.5t57.5 -118.5t167.5 -45.5
t167.5 45.5z" />
    <glyph glyph-name="uni041F" unicode="&#x41f;" horiz-adv-x="945" 
d="M315 0h-250v700h815v-700h-250v495h-315v-495z" />
    <glyph glyph-name="uni0420" unicode="&#x420;" horiz-adv-x="865" 
d="M526 700q154 0 231.5 -67.5t77.5 -187.5t-77.5 -187.5t-231.5 -67.5h-211v-190h-250v700h461zM513 385q35 0 53.5 16t18.5 44t-18.5 44t-53.5 16h-213v-120h213z" />
    <glyph glyph-name="uni0421" unicode="&#x421;" horiz-adv-x="1006" 
d="M252.5 33.5q-105.5 47.5 -159 130t-53.5 186.5t53.5 186.5t159 130t255.5 47.5q140 0 241.5 -39t158 -106.5t68.5 -153.5h-250q-6 24 -31 46.5t-72 37.5t-115 15q-105 0 -161.5 -46t-56.5 -118t56.5 -118t161.5 -46q68 0 115 15t72 37.5t31 46.5h250
q-12 -86 -68.5 -153.5t-158 -106.5t-241.5 -39q-150 0 -255.5 47.5z" />
    <glyph glyph-name="uni0422" unicode="&#x422;" horiz-adv-x="770" 
d="M510 0h-250v495h-260v205h770v-205h-260v-495z" />
    <glyph glyph-name="uni0423" unicode="&#x423;" horiz-adv-x="827" 
d="M552 700h285l-269 -498q-58 -107 -137.5 -161.5t-196.5 -54.5q-42 0 -74 4.5t-65 15.5v205q51 -10 92 -10q36 0 59 6.5t36 21.5l-287 471h290l85 -164q27 -52 38 -93t11 -83v-15h20v15q0 42 9.5 82.5t32.5 93.5z" />
    <glyph glyph-name="uni0424" unicode="&#x424;" horiz-adv-x="1120" 
d="M1041 190.5q-44 -69.5 -134 -111t-222 -44.5v-65h-250v65q-132 3 -222 44.5t-134 111t-44 159.5t44 159.5t134 111t222 44.5v65h250v-65q132 -3 222 -44.5t134 -111t44 -159.5t-44 -159.5zM323.5 260q43.5 -35 126.5 -35v250q-83 0 -126.5 -35t-43.5 -90t43.5 -90z
M670 225q83 0 126.5 35t43.5 90t-43.5 90t-126.5 35v-250z" />
    <glyph glyph-name="uni0425" unicode="&#x425;" horiz-adv-x="910" 
d="M5 0l265 355l-255 345h305l79 -120q27 -41 36.5 -70t9.5 -58v-17h20v17q0 29 9.5 58t36.5 70l79 120h305l-255 -345l265 -355h-310l-92 139q-23 34 -30.5 58.5t-7.5 54.5v13h-20v-13q0 -30 -7.5 -54.5t-30.5 -58.5l-92 -139h-310z" />
    <glyph glyph-name="uni0426" unicode="&#x426;" horiz-adv-x="995" 
d="M975 -165h-240v165h-670v700h250v-500h305v500h250v-500h105v-365z" />
    <glyph glyph-name="uni0427" unicode="&#x427;" horiz-adv-x="895" 
d="M580 700h250v-700h-250v207q-39 -22 -89.5 -32t-120.5 -10q-166 0 -248 82.5t-82 248.5v204h250v-205q0 -125 144 -125q51 0 85.5 8.5t60.5 28.5v293z" />
    <glyph glyph-name="uni0428" unicode="&#x428;" horiz-adv-x="1220" 
d="M905 200v500h250v-700h-1090v700h250v-500h175v500h240v-500h175z" />
    <glyph glyph-name="uni0429" unicode="&#x429;" horiz-adv-x="1280" 
d="M1155 700v-500h105v-365h-240v165h-955v700h250v-500h175v500h240v-500h175v500h250z" />
    <glyph glyph-name="uni042A" unicode="&#x42a;" horiz-adv-x="960" 
d="M626 515q152 0 230.5 -68.5t78.5 -189.5q0 -120 -78.5 -188.5t-230.5 -68.5h-461v495h-160v205h410v-185h211zM608 195q37 0 57 17t20 45q0 29 -20 46t-57 17h-208v-125h208z" />
    <glyph glyph-name="uni042B" unicode="&#x42b;" horiz-adv-x="1170" 
d="M491 515q152 0 230.5 -68.5t78.5 -189.5q0 -120 -78.5 -188.5t-230.5 -68.5h-426v700h250v-185h176zM855 0v700h250v-700h-250zM473 195q37 0 57 17t20 45q0 29 -20 46t-57 17h-173v-125h173z" />
    <glyph glyph-name="uni042C" unicode="&#x42c;" horiz-adv-x="860" 
d="M526 515q152 0 230.5 -68.5t78.5 -189.5q0 -120 -78.5 -188.5t-230.5 -68.5h-461v700h250v-185h211zM508 195q37 0 57 17t20 45q0 29 -20 46t-57 17h-208v-125h208z" />
    <glyph glyph-name="uni042D" unicode="&#x42d;" horiz-adv-x="1011" 
d="M758.5 666.5q105.5 -47.5 159 -130t53.5 -186.5t-53.5 -186.5t-159 -130t-255.5 -47.5q-140 0 -241 38.5t-158 104t-69 146.5h240q47 -99 228 -99q82 0 135.5 25.5t76.5 72.5h-295v155h293q-23 45 -76 70t-134 25q-181 0 -228 -99h-240q12 81 69 146.5t158 104t241 38.5
q150 0 255.5 -47.5z" />
    <glyph glyph-name="uni042E" unicode="&#x42e;" horiz-adv-x="1305" 
d="M1055.5 666q99.5 -48 152 -130.5t52.5 -185.5t-52.5 -185.5t-152 -130.5t-235.5 -48q-115 0 -204 34t-145.5 94.5t-78.5 140.5h-77v-255h-250v700h250v-250h79q22 78 79 137.5t145.5 93t201.5 33.5q136 0 235.5 -48zM919 207.5q44 21.5 67.5 59t23.5 83.5t-23.5 83.5
t-67.5 59t-104 21.5t-104 -21.5t-67.5 -59t-23.5 -83.5t23.5 -83.5t67.5 -59t104 -21.5t104 21.5z" />
    <glyph glyph-name="uni042F" unicode="&#x42f;" horiz-adv-x="870" 
d="M805 700v-700h-250v230h-85q-37 0 -60 -12t-33 -37l-72 -181h-300l56 123q29 66 69 91t101 26v20q-52 2 -95.5 31t-69.5 76.5t-26 105.5q0 105 74.5 166t224.5 61h466zM570 370v140h-196q-41 0 -62.5 -19t-21.5 -51t21.5 -51t62.5 -19h196z" />
    <glyph glyph-name="uni0430" unicode="&#x430;" horiz-adv-x="770" 
d="M92 28q-57 42 -57 113q0 70 57 112t176 42q78 0 127.5 -12t99.5 -35v23q0 40 -34 66.5t-98 26.5q-99 0 -123 -49h-220q11 93 96.5 151t248.5 58q114 0 191.5 -33t115.5 -92t38 -136v-68q0 -16 6.5 -22.5t20.5 -6.5q12 0 23 4v-170q-39 -14 -87 -14q-71 0 -107 28.5
t-36 75.5h-20v-3q0 -41 -57 -71t-185 -30q-119 0 -176 42zM495 143v20q-62 17 -141 17q-56 0 -75 -7t-19 -20t19 -20t75 -7q79 0 141 17z" />
    <glyph glyph-name="uni0431" unicode="&#x431;" horiz-adv-x="789" 
d="M128.5 71.5q-93.5 85.5 -93.5 244.5q0 161 98 252t282 91q60 0 89.5 5.5t39.5 17t10 32.5h225q0 -91 -24.5 -138t-90 -67t-196.5 -20q-122 0 -180 -39.5t-58 -102.5v-5h15q15 33 39 54.5t70 34.5t121 13q90 0 154 -29t97 -80t33 -115q0 -105 -87 -169.5t-265 -64.5
q-185 0 -278.5 85.5zM505.5 170.5q33.5 19.5 33.5 49.5t-33.5 49.5t-108.5 19.5t-108.5 -19.5t-33.5 -49.5t33.5 -49.5t108.5 -19.5t108.5 19.5z" />
    <glyph glyph-name="uni0432" unicode="&#x432;" horiz-adv-x="730" 
d="M586 261q61 0 97.5 -34.5t36.5 -88.5q0 -138 -181 -138h-484v510h471q88 0 131 -33t43 -88q0 -48 -30.5 -78t-79.5 -30h-10v-20h6zM265 370v-58h182q15 0 24 8t9 21t-9 21t-24 8h-182zM463 140q18 0 27.5 8.5t9.5 22.5t-9.5 22.5t-27.5 8.5h-198v-62h198z" />
    <glyph glyph-name="uni0433" unicode="&#x433;" horiz-adv-x="742" 
d="M102 26q-72 40 -72 111q0 64 49 100.5t113.5 50.5t157.5 24q61 6 89 12.5t28 19.5q0 15 -21 22.5t-85 7.5q-51 0 -78 -10.5t-28 -33.5h-225q5 99 96.5 146.5t239.5 47.5q175 0 250.5 -44.5t75.5 -116.5q0 -59 -46.5 -92t-109 -46.5t-153.5 -23.5q-66 -7 -97 -14.5
t-31 -22.5q0 -10 7.5 -16t31 -9t72.5 -3q116 0 116 46v3h225v-2q0 -52 -36.5 -97t-116.5 -72.5t-203 -27.5q-177 0 -249 40z" />
    <glyph glyph-name="uni0434" unicode="&#x434;" horiz-adv-x="794" 
d="M123.5 57.5q-88.5 71.5 -88.5 192.5q0 68 33 121t97.5 83t155.5 30q99 0 149.5 -26.5t73.5 -75.5h15v7q0 39 -27 72t-86 53t-150 20q-130 0 -251 -40v180q111 40 255 40q149 0 252 -48.5t155 -136.5t52 -208q0 -128 -60 -209q-46 -62 -124 -94t-188 -32
q-175 0 -263.5 71.5zM504 179q35 23 35 58t-35 58.5t-107 23.5t-107 -23.5t-35 -58.5t35 -58t107 -23t107 23z" />
    <glyph glyph-name="uni0435" unicode="&#x435;" horiz-adv-x="780" 
d="M746 200h-502q34 -59 147 -59q59 0 88.5 8t51.5 21h210q-15 -42 -55.5 -84t-115.5 -71t-183 -29q-113 0 -193.5 36t-122 97t-41.5 136t41.5 136t123 97t195.5 36q115 0 196 -36t122.5 -98t41.5 -138q0 -23 -4 -52zM244 310h292q-34 59 -146 59t-146 -59z" />
    <glyph glyph-name="uni0436" unicode="&#x436;" horiz-adv-x="984" 
d="M812 267l182 -267h-250l-147 240v-240h-210v240l-147 -240h-250l182 267l-172 243h245l142 -222v222h210v-222l142 222h245z" />
    <glyph glyph-name="uni0437" unicode="&#x437;" horiz-adv-x="670" 
d="M533 263q58 0 92.5 -32.5t34.5 -84.5q0 -75 -73 -117.5t-252 -42.5q-176 0 -250.5 48.5t-74.5 136.5v9h220v-5q0 -22 21.5 -33t83.5 -11t83.5 9.5t21.5 28.5t-19 29t-71 10h-100v105h100q46 0 63 8.5t17 24.5t-19.5 24.5t-75.5 8.5q-55 0 -75 -11t-20 -32v-6h-220v11
q0 86 73 134.5t242 48.5q172 0 243.5 -38.5t71.5 -99.5q0 -47 -30.5 -75t-86.5 -28h-3v-20h3z" />
    <glyph glyph-name="uni0438" unicode="&#x438;" horiz-adv-x="798" 
d="M55 0v510h210v-175q0 -74 -7.5 -122t-22.5 -93h20l151 390h337v-510h-210v175q0 74 7.5 122t22.5 93h-20l-151 -390h-337z" />
    <glyph glyph-name="uni0439" unicode="&#x439;" horiz-adv-x="798" 
d="M55 0v510h210v-175q0 -74 -7.5 -122t-22.5 -93h20l151 390h337v-510h-210v175q0 74 7.5 122t22.5 93h-20l-151 -390h-337zM219 617q-67 52 -75 138h185q2 -26 21.5 -40.5t58.5 -14.5t58.5 14.5t21.5 40.5h185q-8 -86 -75 -138t-190 -52t-190 52z" />
    <glyph glyph-name="uni043A" unicode="&#x43a;" horiz-adv-x="697" 
d="M503 267l209 -267h-270l-167 243v-243h-220v510h220v-224l162 224h265z" />
    <glyph glyph-name="uni043B" unicode="&#x43b;" horiz-adv-x="785" 
d="M10 3v185q16 -7 40 -7q33 0 49 14t20 44l33 271h578v-510h-220v325h-169l-17 -142q-23 -197 -210 -197q-70 0 -104 17z" />
    <glyph glyph-name="uni043C" unicode="&#x43c;" horiz-adv-x="920" 
d="M55 0v510h323l54 -219q18 -70 18 -101v-5h20v5q0 31 18 101l54 219h323v-510h-210v225q0 90 20 165h-20l-93 -325h-204l-93 325h-20q20 -75 20 -165v-225h-210z" />
    <glyph glyph-name="uni043D" unicode="&#x43d;" horiz-adv-x="793" 
d="M518 355v155h220v-510h-220v170h-243v-170h-220v510h220v-155h243z" />
    <glyph glyph-name="uni043E" unicode="&#x43e;" horiz-adv-x="794" 
d="M196.5 22q-82.5 36 -124.5 97t-42 136t42 136t124.5 97t200.5 36t200.5 -36t124.5 -97t42 -136t-42 -136t-124.5 -97t-200.5 -36t-200.5 36zM506.5 184q37.5 28 37.5 71q0 42 -38 70.5t-109 28.5t-109 -28.5t-38 -70.5q0 -43 37.5 -71t109.5 -28t109.5 28z" />
    <glyph glyph-name="uni043F" unicode="&#x43f;" horiz-adv-x="778" 
d="M275 0h-220v510h668v-510h-220v325h-228v-325z" />
    <glyph glyph-name="uni0440" unicode="&#x440;" horiz-adv-x="810" 
d="M55 -190v700h220l-30 -130h20q24 73 83 108.5t156 35.5q81 0 142.5 -33.5t95 -94.5t33.5 -141t-33.5 -141t-95 -94.5t-142.5 -33.5q-97 0 -156 35.5t-83 108.5h-20q30 -94 30 -185v-135h-220zM519.5 184q35.5 28 35.5 71t-35.5 71t-102.5 28q-66 0 -101.5 -28t-35.5 -71
t35.5 -71t101.5 -28q67 0 102.5 28z" />
    <glyph glyph-name="uni0441" unicode="&#x441;" horiz-adv-x="762" 
d="M192.5 22q-80.5 36 -121.5 97.5t-41 135.5t41 135.5t121.5 97.5t193.5 36q101 0 179 -29.5t124 -82.5t53 -122h-220q-8 27 -42.5 45.5t-93.5 18.5q-64 0 -100 -29t-36 -70t36 -70t100 -29q59 0 93.5 18.5t42.5 45.5h220q-7 -69 -53 -122t-124 -82.5t-179 -29.5
q-113 0 -193.5 36z" />
    <glyph glyph-name="uni0442" unicode="&#x442;" horiz-adv-x="608" 
d="M414 0h-220v325h-199v185h618v-185h-199v-325z" />
    <glyph glyph-name="uni0443" unicode="&#x443;" horiz-adv-x="714" 
d="M464 510h255l-224 -487q-58 -125 -139 -179t-198 -54q-38 0 -66 5t-57 18v180q45 -18 94 -18q38 0 64.5 6.5t43.5 22.5l-242 506h255l69 -215q28 -89 28 -140v-5h20v5q0 51 28 140z" />
    <glyph glyph-name="uni0444" unicode="&#x444;" horiz-adv-x="1106" 
d="M438 -60q0 40 7.5 74.5t20.5 70.5h-20q-17 -43 -63.5 -71t-118.5 -28q-68 0 -119.5 31.5t-80.5 92t-29 145.5t29 145.5t80.5 92t119.5 31.5q72 0 118.5 -28t63.5 -71h20q-13 36 -20.5 70.5t-7.5 74.5v130h230v-130q0 -40 -7.5 -74.5t-20.5 -70.5h20q17 43 63.5 71
t118.5 28q68 0 119.5 -31.5t80.5 -92t29 -145.5t-29 -145.5t-80.5 -92t-119.5 -31.5q-72 0 -118.5 28t-63.5 71h-20q13 -36 20.5 -70.5t7.5 -74.5v-130h-230v130zM420.5 183.5q27.5 27.5 27.5 71.5t-27.5 71.5t-71.5 27.5t-71.5 -27.5t-27.5 -71.5t27.5 -71.5t71.5 -27.5
t71.5 27.5zM828.5 183.5q27.5 27.5 27.5 71.5t-27.5 71.5t-71.5 27.5t-71.5 -27.5t-27.5 -71.5t27.5 -71.5t71.5 -27.5t71.5 27.5z" />
    <glyph glyph-name="uni0445" unicode="&#x445;" horiz-adv-x="740" 
d="M0 0l206 260l-196 250h270l43 -70q19 -30 28 -56t9 -54v-5h20v5q0 28 9 54t28 56l43 70h270l-196 -250l206 -260h-275l-57 87q-28 42 -28 88v10h-20v-10q0 -46 -28 -88l-57 -87h-275z" />
    <glyph glyph-name="uni0446" unicode="&#x446;" horiz-adv-x="813" 
d="M803 -135h-210v135h-538v510h220v-330h218v330h220v-330h90v-315z" />
    <glyph glyph-name="uni0447" unicode="&#x447;" horiz-adv-x="737" 
d="M462 510h220v-510h-220v143q-37 -21 -72 -29.5t-87 -8.5q-137 0 -205 68t-68 206v131h220v-117q0 -52 26 -77.5t80 -25.5q33 0 58 7t48 24v189z" />
    <glyph glyph-name="uni0448" unicode="&#x448;" horiz-adv-x="1000" 
d="M725 180v330h220v-510h-890v510h220v-330h120v330h210v-330h120z" />
    <glyph glyph-name="uni0449" unicode="&#x449;" horiz-adv-x="1045" 
d="M945 510v-330h90v-315h-210v135h-770v510h220v-330h120v330h210v-330h120v330h220z" />
    <glyph glyph-name="uni044A" unicode="&#x44a;" horiz-adv-x="765" 
d="M518 390q115 0 173.5 -51.5t58.5 -143.5t-58.5 -143.5t-173.5 -51.5h-383v325h-135v185h355v-120h163zM480 155q25 0 37.5 10.5t12.5 29.5t-12.5 29.5t-37.5 10.5h-140v-80h140z" />
    <glyph glyph-name="uni044B" unicode="&#x44b;" horiz-adv-x="955" 
d="M403 390q115 0 173.5 -51.5t58.5 -143.5t-58.5 -143.5t-173.5 -51.5h-348v510h220v-120h128zM680 0v510h220v-510h-220zM375 155q25 0 37.5 10.5t12.5 29.5t-12.5 29.5t-37.5 10.5h-115v-80h115z" />
    <glyph glyph-name="uni044C" unicode="&#x44c;" horiz-adv-x="685" 
d="M438 390q115 0 173.5 -51.5t58.5 -143.5t-58.5 -143.5t-173.5 -51.5h-383v510h220v-120h163zM400 155q25 0 37.5 10.5t12.5 29.5t-12.5 29.5t-37.5 10.5h-140v-80h140z" />
    <glyph glyph-name="uni044D" unicode="&#x44d;" horiz-adv-x="767" 
d="M574.5 488q80.5 -36 121.5 -97.5t41 -135.5t-41 -135.5t-121.5 -97.5t-193.5 -36q-101 0 -179 29t-123.5 80t-53.5 115h210q9 -25 45.5 -44.5t100.5 -19.5q91 0 127 49h-183v120h183q-36 49 -127 49q-64 0 -100.5 -19.5t-45.5 -44.5h-210q8 64 53.5 115t123.5 80t179 29
q113 0 193.5 -36z" />
    <glyph glyph-name="uni044E" unicode="&#x44e;" horiz-adv-x="1038" 
d="M847.5 489q76.5 -35 116 -96t39.5 -138t-39.5 -138t-116 -96t-183.5 -35q-129 0 -212.5 50t-112.5 134h-64v-170h-220v510h220v-165h65q30 82 113.5 130.5t210.5 48.5q107 0 183.5 -35zM750.5 183.5q32.5 27.5 32.5 71.5t-32.5 71.5t-91.5 27.5t-91.5 -27.5t-32.5 -71.5
t32.5 -71.5t91.5 -27.5t91.5 27.5z" />
    <glyph glyph-name="uni044F" unicode="&#x44f;" horiz-adv-x="710" 
d="M655 510v-510h-220v150h-64q-22 0 -38 -10.5t-22 -29.5l-36 -110h-270l32 71q23 50 51.5 71.5t79.5 22.5v20q-66 4 -104.5 46t-38.5 101q0 83 60 130.5t186 47.5h384zM455 265v95h-156q-25 0 -39.5 -13.5t-14.5 -34.5t14.5 -34t39.5 -13h156z" />
    <glyph glyph-name="uni0451" unicode="&#x451;" horiz-adv-x="780" 
d="M746 200h-502q34 -59 147 -59q59 0 88.5 8t51.5 21h210q-15 -42 -55.5 -84t-115.5 -71t-183 -29q-113 0 -193.5 36t-122 97t-41.5 136t41.5 136t123 97t195.5 36q115 0 196 -36t122.5 -98t41.5 -138q0 -23 -4 -52zM244 310h292q-34 59 -146 59t-146 -59zM183.5 605.5
q-28.5 25.5 -28.5 64.5t28.5 64.5t76.5 25.5t76.5 -25.5t28.5 -64.5t-28.5 -64.5t-76.5 -25.5t-76.5 25.5zM443.5 605.5q-28.5 25.5 -28.5 64.5t28.5 64.5t76.5 25.5t76.5 -25.5t28.5 -64.5t-28.5 -64.5t-76.5 -25.5t-76.5 25.5z" />
    <glyph glyph-name="uni0452" unicode="&#x452;" horiz-adv-x="833" 
d="M722 394q71 -75 71 -215q0 -139 -79 -214t-231 -75q-61 0 -113 15v170q30 -10 67 -10q65 0 100.5 31t35.5 83t-35 83.5t-99 31.5t-99 -35.5t-35 -100.5v-158h-220v510h-90v130h90v60h220v-60h250v-130h-250v-15q0 -91 -30 -185h20q24 83 80.5 121t148.5 38q127 0 198 -75
z" />
    <glyph glyph-name="uni0453" unicode="&#x453;" horiz-adv-x="742" 
d="M102 26q-72 40 -72 111q0 64 49 100.5t113.5 50.5t157.5 24q61 6 89 12.5t28 19.5q0 15 -21 22.5t-85 7.5q-51 0 -78 -10.5t-28 -33.5h-225q5 99 96.5 146.5t239.5 47.5q175 0 250.5 -44.5t75.5 -116.5q0 -59 -46.5 -92t-109 -46.5t-153.5 -23.5q-66 -7 -97 -14.5
t-31 -22.5q0 -10 7.5 -16t31 -9t72.5 -3q116 0 116 46v3h225v-2q0 -52 -36.5 -97t-116.5 -72.5t-203 -27.5q-177 0 -249 40zM441 570h-200l90 180h250z" />
    <glyph glyph-name="uni0454" unicode="&#x454;" horiz-adv-x="767" 
d="M486.5 165.5q36.5 19.5 45.5 44.5h210q-8 -64 -53.5 -115t-123.5 -80t-179 -29q-113 0 -193.5 36t-121.5 97.5t-41 135.5t41 135.5t121.5 97.5t193.5 36q101 0 179 -29t123.5 -80t53.5 -115h-210q-9 25 -45.5 44.5t-100.5 19.5q-91 0 -127 -49h183v-120h-183
q36 -49 127 -49q64 0 100.5 19.5z" />
    <glyph glyph-name="uni0455" unicode="&#x455;" horiz-adv-x="743" 
d="M116 40.5q-81 54.5 -81 144.5v5h225v-2q0 -52 114 -52q66 0 90 9.5t24 24.5q0 19 -32 24.5t-106 8.5q-93 3 -155 12t-108.5 41.5t-46.5 98.5q0 74 79 121.5t255 47.5q111 0 184.5 -27t109.5 -72t40 -100h-225q-3 22 -28 35.5t-81 13.5q-109 0 -109 -32q0 -18 32.5 -23.5
t103.5 -7.5q94 -3 156.5 -12t109 -41.5t46.5 -98.5q0 -78 -78.5 -125.5t-260.5 -47.5q-177 0 -258 54.5z" />
    <glyph glyph-name="uni0456" unicode="&#x456;" horiz-adv-x="550" 
d="M400 180h140v-180h-515v180h165v108q0 26 -10.5 36t-36.5 10q-25 0 -48 -10v180q47 20 124 20q70 0 109 -15t55.5 -47.5t16.5 -89.5v-192zM180.5 594.5q-32.5 29.5 -32.5 75.5t32.5 75.5t87.5 29.5t87.5 -29.5t32.5 -75.5t-32.5 -75.5t-87.5 -29.5t-87.5 29.5z" />
    <glyph glyph-name="uni0457" unicode="&#x457;" horiz-adv-x="550" 
d="M400 180h140v-180h-515v180h165v108q0 26 -10.5 36t-36.5 10q-25 0 -48 -10v180q47 20 124 20q70 0 109 -15t55.5 -47.5t16.5 -89.5v-192zM61.5 605.5q-28.5 25.5 -28.5 64.5t28.5 64.5t76.5 25.5t76.5 -25.5t28.5 -64.5t-28.5 -64.5t-76.5 -25.5t-76.5 25.5z
M321.5 605.5q-28.5 25.5 -28.5 64.5t28.5 64.5t76.5 25.5t76.5 -25.5t28.5 -64.5t-28.5 -64.5t-76.5 -25.5t-76.5 25.5z" />
    <glyph glyph-name="uni0458" unicode="&#x458;" horiz-adv-x="370" 
d="M-3 -205q-28 5 -57 18v175q45 -18 87 -18q83 0 83 66v252q0 26 -10.5 36t-36.5 10q-25 0 -48 -10v180q47 20 124 20q70 0 109 -15t55.5 -47.5t16.5 -89.5v-340q0 -116 -65.5 -179t-191.5 -63q-38 0 -66 5zM100.5 594.5q-32.5 29.5 -32.5 75.5t32.5 75.5t87.5 29.5
t87.5 -29.5t32.5 -75.5t-32.5 -75.5t-87.5 -29.5t-87.5 29.5z" />
    <glyph glyph-name="uni0459" unicode="&#x459;" horiz-adv-x="1095" 
d="M853 370q113 0 170 -49t57 -136t-57 -136t-170 -49h-368v325h-144l-17 -142q-23 -197 -210 -197q-70 0 -104 17v185q16 -7 40 -7q33 0 49 14t20 44l33 271h553v-140h148zM810 145q25 0 37.5 10.5t12.5 29.5t-12.5 29.5t-37.5 10.5h-120v-80h120z" />
    <glyph glyph-name="uni045A" unicode="&#x45a;" horiz-adv-x="1103" 
d="M861 370q113 0 170 -49t57 -136t-57 -136t-170 -49h-368v200h-218v-200h-220v510h220v-140h218v140h220v-140h148zM818 145q25 0 37.5 10.5t12.5 29.5t-12.5 29.5t-37.5 10.5h-120v-80h120z" />
    <glyph glyph-name="uni045B" unicode="&#x45b;" horiz-adv-x="833" 
d="M712.5 397.5q70.5 -71.5 70.5 -197.5v-200h-220v158q0 65 -34.5 100.5t-94.5 35.5t-94.5 -35.5t-34.5 -100.5v-158h-220v510h-90v130h90v60h220v-60h250v-130h-250v-15q0 -91 -30 -185h20q23 82 79.5 120.5t144.5 38.5q123 0 193.5 -71.5z" />
    <glyph glyph-name="uni045C" unicode="&#x45c;" horiz-adv-x="697" 
d="M503 267l209 -267h-270l-167 243v-243h-220v510h220v-224l162 224h265zM436 570h-200l90 180h250z" />
    <glyph glyph-name="uni045E" unicode="&#x45e;" horiz-adv-x="714" 
d="M464 510h255l-224 -487q-58 -125 -139 -179t-198 -54q-38 0 -66 5t-57 18v180q45 -18 94 -18q38 0 64.5 6.5t43.5 22.5l-242 506h255l69 -215q28 -89 28 -140v-5h20v5q0 51 28 140zM167 617q-67 52 -75 138h185q2 -26 21.5 -40.5t58.5 -14.5t58.5 14.5t21.5 40.5h185
q-8 -86 -75 -138t-190 -52t-190 52z" />
    <glyph glyph-name="uni045F" unicode="&#x45f;" horiz-adv-x="783" 
d="M508 510h220v-510h-231v-135h-210v135h-232v510h220v-330h233v330z" />
    <glyph glyph-name="uni0490" unicode="&#x490;" horiz-adv-x="750" 
d="M485 700v155h240v-360h-410v-495h-250v700h420z" />
    <glyph glyph-name="uni0491" unicode="&#x491;" horiz-adv-x="600" 
d="M375 510v120h210v-305h-310v-325h-220v510h320z" />
    <glyph glyph-name="Wgrave" unicode="&#x1e80;" horiz-adv-x="1160" 
d="M185 0l-170 700h270l63 -358q14 -83 14 -181v-11h20v11q0 55 2.5 96.5t10.5 84.5l48 248h274l48 -248q8 -43 10.5 -84.5t2.5 -96.5v-11h20v11q0 98 14 181l63 358h270l-170 -700h-314l-50 219q-14 60 -17.5 95.5t-3.5 120.5v5h-20v-5q0 -85 -3.5 -120.5t-17.5 -95.5
l-50 -219h-314zM720 760h-220l-170 190h280z" />
    <glyph glyph-name="wgrave" unicode="&#x1e81;" horiz-adv-x="964" 
d="M134 0l-134 510h240l39 -238q11 -64 11 -142v-10h20v10q0 61 14 142l40 238h236l40 -238q14 -81 14 -142v-10h20v10q0 78 11 142l39 238h240l-134 -510h-277l-46 198q-9 36 -12 78t-3 109v5h-20v-5q0 -67 -3 -109t-12 -78l-46 -198h-277zM607 570h-200l-140 180h250z" />
    <glyph glyph-name="Wacute" unicode="&#x1e82;" horiz-adv-x="1160" 
d="M185 0l-170 700h270l63 -358q14 -83 14 -181v-11h20v11q0 55 2.5 96.5t10.5 84.5l48 248h274l48 -248q8 -43 10.5 -84.5t2.5 -96.5v-11h20v11q0 98 14 181l63 358h270l-170 -700h-314l-50 219q-14 60 -17.5 95.5t-3.5 120.5v5h-20v-5q0 -85 -3.5 -120.5t-17.5 -95.5
l-50 -219h-314zM660 760h-220l110 190h280z" />
    <glyph glyph-name="wacute" unicode="&#x1e83;" horiz-adv-x="964" 
d="M134 0l-134 510h240l39 -238q11 -64 11 -142v-10h20v10q0 61 14 142l40 238h236l40 -238q14 -81 14 -142v-10h20v10q0 78 11 142l39 238h240l-134 -510h-277l-46 198q-9 36 -12 78t-3 109v5h-20v-5q0 -67 -3 -109t-12 -78l-46 -198h-277zM557 570h-200l90 180h250z" />
    <glyph glyph-name="Wdieresis" unicode="&#x1e84;" horiz-adv-x="1160" 
d="M185 0l-170 700h270l63 -358q14 -83 14 -181v-11h20v11q0 55 2.5 96.5t10.5 84.5l48 248h274l48 -248q8 -43 10.5 -84.5t2.5 -96.5v-11h20v11q0 98 14 181l63 358h270l-170 -700h-314l-50 219q-14 60 -17.5 95.5t-3.5 120.5v5h-20v-5q0 -85 -3.5 -120.5t-17.5 -95.5
l-50 -219h-314zM337 788q-32 28 -32 72t32 72t88 28t88 -28t32 -72t-32 -72t-88 -28t-88 28zM647 788q-32 28 -32 72t32 72t88 28t88 -28t32 -72t-32 -72t-88 -28t-88 28z" />
    <glyph glyph-name="wdieresis" unicode="&#x1e85;" horiz-adv-x="964" 
d="M134 0l-134 510h240l39 -238q11 -64 11 -142v-10h20v10q0 61 14 142l40 238h236l40 -238q14 -81 14 -142v-10h20v10q0 78 11 142l39 238h240l-134 -510h-277l-46 198q-9 36 -12 78t-3 109v5h-20v-5q0 -67 -3 -109t-12 -78l-46 -198h-277zM275.5 605.5
q-28.5 25.5 -28.5 64.5t28.5 64.5t76.5 25.5t76.5 -25.5t28.5 -64.5t-28.5 -64.5t-76.5 -25.5t-76.5 25.5zM535.5 605.5q-28.5 25.5 -28.5 64.5t28.5 64.5t76.5 25.5t76.5 -25.5t28.5 -64.5t-28.5 -64.5t-76.5 -25.5t-76.5 25.5z" />
    <glyph glyph-name="uni1E9E" unicode="&#x1e9e;" horiz-adv-x="985" 
d="M487.5 16q-71.5 30 -107 80.5t-35.5 112.5v11h215v-5q0 -28 25.5 -46t76.5 -18q50 0 74 15.5t24 38.5q0 28 -32.5 38.5t-99.5 17.5q-65 7 -106.5 16.5t-71.5 35.5t-30 75q0 45 28 71.5t94 45.5v20h-150q-47 0 -72 -25t-25 -72v-428h-240v407q0 141 76 217t217 76h522
v-175q-141 -21 -193 -41t-52 -44q0 -26 27 -37t88 -23q70 -13 114.5 -29t77.5 -54.5t33 -106.5q0 -56 -33.5 -102.5t-101.5 -74t-168 -27.5q-103 0 -174.5 30z" />
    <glyph glyph-name="uni1EBC" unicode="&#x1ebc;" horiz-adv-x="830" 
d="M785 700v-190h-470v-72h400v-165h-400v-83h470v-190h-720v700h720zM180 755q-15 56 -15 90q0 57 30.5 88.5t85.5 31.5q41 0 75 -10t75 -27q16 -7 31 -12.5t24 -5.5q24 0 24 22q0 10 -5 33h165q15 -56 15 -90q0 -57 -30.5 -88.5t-85.5 -31.5q-41 0 -75 10t-75 27
q-16 7 -31 12.5t-24 5.5q-24 0 -24 -22q0 -10 5 -33h-165z" />
    <glyph glyph-name="uni1EBD" unicode="&#x1ebd;" horiz-adv-x="780" 
d="M746 200h-502q34 -59 147 -59q59 0 88.5 8t51.5 21h210q-15 -42 -55.5 -84t-115.5 -71t-183 -29q-113 0 -193.5 36t-122 97t-41.5 136t41.5 136t123 97t195.5 36q115 0 196 -36t122.5 -98t41.5 -138q0 -23 -4 -52zM244 310h292q-34 59 -146 59t-146 -59zM160 565
q-15 42 -15 80q0 56 28.5 85.5t82.5 29.5q28 0 54 -8t67 -25q49 -22 71 -22q13 0 20 6.5t7 17.5t-5 31h150q15 -42 15 -80q0 -56 -28.5 -85.5t-82.5 -29.5q-28 0 -54 8t-67 25q-50 22 -71 22q-13 0 -20 -6.5t-7 -17.5t5 -31h-150z" />
    <glyph glyph-name="Ygrave" unicode="&#x1ef2;" horiz-adv-x="842" 
d="M296 0v208l-301 492h285l90 -167q24 -43 32.5 -79.5t8.5 -73.5v-20h20v20q0 37 8.5 73.5t32.5 79.5l90 167h285l-301 -492v-208h-250zM561 760h-220l-170 190h280z" />
    <glyph glyph-name="ygrave" unicode="&#x1ef3;" horiz-adv-x="714" 
d="M464 510h255l-224 -487q-58 -125 -139 -179t-198 -54q-38 0 -66 5t-57 18v180q45 -18 94 -18q38 0 64.5 6.5t43.5 22.5l-242 506h255l69 -215q28 -89 28 -140v-5h20v5q0 51 28 140zM482 570h-200l-140 180h250z" />
    <glyph glyph-name="uni1EF8" unicode="&#x1ef8;" horiz-adv-x="842" 
d="M296 0v208l-301 492h285l90 -167q24 -43 32.5 -79.5t8.5 -73.5v-20h20v20q0 37 8.5 73.5t32.5 79.5l90 167h285l-301 -492v-208h-250zM176 755q-15 56 -15 90q0 57 30.5 88.5t85.5 31.5q41 0 75 -10t75 -27q16 -7 31 -12.5t24 -5.5q24 0 24 22q0 10 -5 33h165
q15 -56 15 -90q0 -57 -30.5 -88.5t-85.5 -31.5q-41 0 -75 10t-75 27q-16 7 -31 12.5t-24 5.5q-24 0 -24 -22q0 -10 5 -33h-165z" />
    <glyph glyph-name="uni1EF9" unicode="&#x1ef9;" horiz-adv-x="714" 
d="M464 510h255l-224 -487q-58 -125 -139 -179t-198 -54q-38 0 -66 5t-57 18v180q45 -18 94 -18q38 0 64.5 6.5t43.5 22.5l-242 506h255l69 -215q28 -89 28 -140v-5h20v5q0 51 28 140zM127 565q-15 42 -15 80q0 56 28.5 85.5t82.5 29.5q28 0 54 -8t67 -25q49 -22 71 -22
q13 0 20 6.5t7 17.5t-5 31h150q15 -42 15 -80q0 -56 -28.5 -85.5t-82.5 -29.5q-28 0 -54 8t-67 25q-50 22 -71 22q-13 0 -20 -6.5t-7 -17.5t5 -31h-150z" />
    <glyph glyph-name="endash" unicode="&#x2013;" horiz-adv-x="730" 
d="M695 170h-660v170h660v-170z" />
    <glyph glyph-name="emdash" unicode="&#x2014;" horiz-adv-x="970" 
d="M935 170h-900v170h900v-170z" />
    <glyph glyph-name="quoteleft" unicode="&#x2018;" horiz-adv-x="295" 
d="M259 569q-62 0 -93 -10t-42 -33q16 2 23 2q55 0 89 -32.5t34 -82.5t-33 -82.5t-84 -32.5q-60 0 -94 37t-34 108q0 131 66 201t184 70v-145h-16z" />
    <glyph glyph-name="quoteright" unicode="&#x2019;" horiz-adv-x="295" 
d="M236 677q34 -37 34 -108q0 -131 -66 -201t-184 -70v145h16q62 0 93 10t42 33q-16 -2 -23 -2q-55 0 -89 32.5t-34 82.5t33 82.5t84 32.5q60 0 94 -37z" />
    <glyph glyph-name="quotesinglbase" unicode="&#x201a;" horiz-adv-x="295" 
d="M236 179q34 -37 34 -108q0 -131 -66 -201t-184 -70v145h16q62 0 93 10t42 33q-16 -2 -23 -2q-55 0 -89 32.5t-34 82.5t33 82.5t84 32.5q60 0 94 -37z" />
    <glyph glyph-name="quotedblleft" unicode="&#x201c;" horiz-adv-x="580" 
d="M259 569q-62 0 -93 -10t-42 -33q16 2 23 2q55 0 89 -32.5t34 -82.5t-33 -82.5t-84 -32.5q-60 0 -94 37t-34 108q0 131 66 201t184 70v-145h-16zM544 569q-62 0 -93 -10t-42 -33q16 2 23 2q55 0 89 -32.5t34 -82.5t-33 -82.5t-84 -32.5q-60 0 -94 37t-34 108q0 131 66 201
t184 70v-145h-16z" />
    <glyph glyph-name="quotedblright" unicode="&#x201d;" horiz-adv-x="580" 
d="M236 677q34 -37 34 -108q0 -131 -66 -201t-184 -70v145h16q62 0 93 10t42 33q-16 -2 -23 -2q-55 0 -89 32.5t-34 82.5t33 82.5t84 32.5q60 0 94 -37zM521 677q34 -37 34 -108q0 -131 -66 -201t-184 -70v145h16q62 0 93 10t42 33q-16 -2 -23 -2q-55 0 -89 32.5t-34 82.5
t33 82.5t84 32.5q60 0 94 -37z" />
    <glyph glyph-name="quotedblbase" unicode="&#x201e;" horiz-adv-x="580" 
d="M236 179q34 -37 34 -108q0 -131 -66 -201t-184 -70v145h16q62 0 93 10t42 33q-16 -2 -23 -2q-55 0 -89 32.5t-34 82.5t33 82.5t84 32.5q60 0 94 -37zM521 179q34 -37 34 -108q0 -131 -66 -201t-184 -70v145h16q62 0 93 10t42 33q-16 -2 -23 -2q-55 0 -89 32.5t-34 82.5
t33 82.5t84 32.5q60 0 94 -37z" />
    <glyph glyph-name="dagger" unicode="&#x2020;" horiz-adv-x="570" 
d="M380 575h160v-170h-160v-515h-190v515h-160v170h160v165h190v-165z" />
    <glyph glyph-name="daggerdbl" unicode="&#x2021;" horiz-adv-x="590" 
d="M550 575v-155h-165v-140h165v-155h-165v-235h-180v235h-165v155h165v140h-165v155h165v165h180v-165h165z" />
    <glyph glyph-name="bullet" unicode="&#x2022;" horiz-adv-x="460" 
d="M121.5 154.5q-41.5 39.5 -41.5 100.5t41.5 100.5t108.5 39.5t108.5 -39.5t41.5 -100.5t-41.5 -100.5t-108.5 -39.5t-108.5 39.5z" />
    <glyph glyph-name="ellipsis" unicode="&#x2026;" horiz-adv-x="985" 
d="M59 18.5q-34 32.5 -34 82.5t34 82.5t88 32.5q55 0 89 -32.5t34 -82.5t-34 -82.5t-89 -32.5q-54 0 -88 32.5zM404 18.5q-34 32.5 -34 82.5t34 82.5t88 32.5q55 0 89 -32.5t34 -82.5t-34 -82.5t-89 -32.5q-54 0 -88 32.5zM749 18.5q-34 32.5 -34 82.5t34 82.5t88 32.5
q55 0 89 -32.5t34 -82.5t-34 -82.5t-89 -32.5q-54 0 -88 32.5z" />
    <glyph glyph-name="perthousand" unicode="&#x2030;" horiz-adv-x="1340" 
d="M119.5 377.5q-45.5 23.5 -70 64.5t-24.5 92t24.5 92t70 64.5t105.5 23.5t105.5 -23.5t70 -64.5t24.5 -92t-24.5 -92t-70 -64.5t-105.5 -23.5t-105.5 23.5zM280 0h-165l520 700h165zM264.5 494.5q15.5 15.5 15.5 39.5t-15.5 39.5t-39.5 15.5t-39.5 -15.5t-15.5 -39.5
t15.5 -39.5t39.5 -15.5t39.5 15.5zM584.5 9.5q-45.5 23.5 -70 64.5t-24.5 92t24.5 92t70 64.5t105.5 23.5t105.5 -23.5t70 -64.5t24.5 -92t-24.5 -92t-70 -64.5t-105.5 -23.5t-105.5 23.5zM1014.5 9.5q-45.5 23.5 -70 64.5t-24.5 92t24.5 92t70 64.5t105.5 23.5t105.5 -23.5
t70 -64.5t24.5 -92t-24.5 -92t-70 -64.5t-105.5 -23.5t-105.5 23.5zM729.5 126.5q15.5 15.5 15.5 39.5t-15.5 39.5t-39.5 15.5t-39.5 -15.5t-15.5 -39.5t15.5 -39.5t39.5 -15.5t39.5 15.5zM1159.5 126.5q15.5 15.5 15.5 39.5t-15.5 39.5t-39.5 15.5t-39.5 -15.5t-15.5 -39.5
t15.5 -39.5t39.5 -15.5t39.5 15.5z" />
    <glyph glyph-name="guilsinglleft" unicode="&#x2039;" horiz-adv-x="419" 
d="M399 60h-220l-169 196l169 194h220l-174 -194z" />
    <glyph glyph-name="guilsinglright" unicode="&#x203a;" horiz-adv-x="419" 
d="M240 60h-220l174 196l-174 194h220l169 -194z" />
    <glyph glyph-name="fraction" unicode="&#x2044;" horiz-adv-x="265" 
d="M-45 0h-165l520 700h165z" />
    <glyph glyph-name="uni2070" unicode="&#x2070;" horiz-adv-x="502" 
d="M131.5 436q-51.5 26 -79 71.5t-27.5 102.5t27.5 102.5t79 71.5t119.5 26t119.5 -25.5t79 -71t27.5 -103.5q0 -57 -27.5 -102.5t-79 -71.5t-119.5 -26t-119.5 26zM302 559.5q20 19.5 20 50.5t-20 50.5t-51 19.5t-51 -19.5t-20 -50.5t20 -50.5t51 -19.5t51 19.5z" />
    <glyph glyph-name="uni2074" unicode="&#x2074;" horiz-adv-x="465" 
d="M395 582h65v-105h-65v-53h-145v53h-230v100l165 219h210v-214zM175 597v-15h85v46q0 37 6.5 63.5t19.5 54.5h-15q-6 -25 -16.5 -43.5t-29.5 -42.5z" />
    <glyph glyph-name="uni2075" unicode="&#x2075;" horiz-adv-x="455" 
d="M75.5 445q-50.5 35 -50.5 92v6h145v-2q0 -7 15 -14t47 -7q33 0 48 9.5t15 23.5t-16 23.5t-52 9.5q-55 0 -67 -18h-140l27 228h378v-105h-280l-10 -62h12q13 20 42.5 31t84.5 11q84 0 125 -34.5t41 -95.5q0 -60 -50 -95.5t-158 -35.5q-106 0 -156.5 35z" />
    <glyph glyph-name="uni2076" unicode="&#x2076;" horiz-adv-x="493" 
d="M80.5 460q-55.5 50 -55.5 150q0 99 54 149.5t167 50.5q114 0 168 -36t54 -92v-2h-145v1q0 10 -17.5 19.5t-53.5 9.5q-45 0 -68.5 -22.5t-23.5 -64.5v-10h12q12 25 41 36t91 11q84 0 126.5 -32.5t42.5 -83.5q0 -64 -51 -99t-168 -35q-118 0 -173.5 50zM328 545
q0 35 -79 35t-79 -35t79 -35t79 35z" />
    <glyph glyph-name="uni2077" unicode="&#x2077;" horiz-adv-x="420" 
d="M95 424q0 94 40.5 150.5t135.5 74.5v12h-246v135h380v-145q-81 -31 -113 -88.5t-32 -138.5h-165z" />
    <glyph glyph-name="uni2078" unicode="&#x2078;" horiz-adv-x="502" 
d="M381 613q42 -1 69 -26t27 -59q0 -56 -51 -87t-175 -31t-175 31t-51 87q0 34 27 59t69 26v15q-41 0 -63.5 21.5t-22.5 57.5q0 103 216 103t216 -103q0 -36 -22.5 -57.5t-63.5 -21.5v-15zM187 698q-17 -7 -17 -19t17 -19t64 -7t64 7t17 19t-17 19t-64 7t-64 -7zM324 522
q18 7 18 22t-18 22t-73 7t-73 -7t-18 -22t18 -22t73 -7t73 7z" />
    <glyph glyph-name="uni2079" unicode="&#x2079;" horiz-adv-x="493" 
d="M79.5 445q-54.5 35 -54.5 88v2h145v-1q0 -24 71 -24q44 0 68 22t24 60v10h-12q-12 -25 -41 -36t-91 -11q-84 0 -126.5 33t-42.5 85q0 66 51 101.5t168 35.5q118 0 173.5 -50t55.5 -150q0 -99 -54 -149.5t-167 -50.5t-167.5 35zM323 672q0 38 -79 38t-79 -38q0 -37 79 -37
t79 37z" />
    <glyph glyph-name="uni2080" unicode="&#x2080;" horiz-adv-x="502" 
d="M131.5 -84q-51.5 26 -79 71.5t-27.5 102.5t27.5 102.5t79 71.5t119.5 26t119.5 -25.5t79 -71t27.5 -103.5q0 -57 -27.5 -102.5t-79 -71.5t-119.5 -26t-119.5 26zM302 39.5q20 19.5 20 50.5t-20 50.5t-51 19.5t-51 -19.5t-20 -50.5t20 -50.5t51 -19.5t51 19.5z" />
    <glyph glyph-name="uni2081" unicode="&#x2081;" horiz-adv-x="425" 
d="M305 19h115v-115h-390v115h130v5q0 42 11 74.5t39 87.5h-15q-25 -58 -58 -86t-82 -28v120h20q100 0 100 81v3h130v-257z" />
    <glyph glyph-name="uni2082" unicode="&#x2082;" horiz-adv-x="485" 
d="M433 91q-32 -28 -73.5 -39t-102.5 -20q-33 -5 -49 -8.5t-21 -9.5h268v-110h-420v93q0 47 28 72t65.5 34t94.5 15q46 5 66.5 10.5t20.5 20.5q0 13 -13 19.5t-49 6.5t-49.5 -8t-13.5 -24v-3h-155v7q0 67 52 105t166 38q113 0 165 -34t52 -88q0 -49 -32 -77z" />
    <glyph glyph-name="uni2083" unicode="&#x2083;" horiz-adv-x="461" 
d="M343 125q103 -20 103 -107q0 -58 -51.5 -93t-161.5 -35q-213 0 -213 141v5h145v-2q0 -34 68 -34q38 0 53 7.5t15 21.5q0 29 -62 29h-79v65l151 63v15q-75 -40 -175 -40h-101v115h391v-120z" />
    <glyph glyph-name="uni2084" unicode="&#x2084;" horiz-adv-x="465" 
d="M395 62h65v-105h-65v-53h-145v53h-230v100l165 219h210v-214zM175 77v-15h85v46q0 37 6.5 63.5t19.5 54.5h-15q-6 -25 -16.5 -43.5t-29.5 -42.5z" />
    <glyph glyph-name="uni2085" unicode="&#x2085;" horiz-adv-x="455" 
d="M75.5 -75q-50.5 35 -50.5 92v6h145v-2q0 -7 15 -14t47 -7q33 0 48 9.5t15 23.5t-16 23.5t-52 9.5q-55 0 -67 -18h-140l27 228h378v-105h-280l-10 -62h12q13 20 42.5 31t84.5 11q84 0 125 -34.5t41 -95.5q0 -60 -50 -95.5t-158 -35.5q-106 0 -156.5 35z" />
    <glyph glyph-name="uni2086" unicode="&#x2086;" horiz-adv-x="493" 
d="M80.5 -60q-55.5 50 -55.5 150q0 99 54 149.5t167 50.5q114 0 168 -36t54 -92v-2h-145v1q0 10 -17.5 19.5t-53.5 9.5q-45 0 -68.5 -22.5t-23.5 -64.5v-10h12q12 25 41 36t91 11q84 0 126.5 -32.5t42.5 -83.5q0 -64 -51 -99t-168 -35q-118 0 -173.5 50zM328 25q0 35 -79 35
t-79 -35t79 -35t79 35z" />
    <glyph glyph-name="uni2087" unicode="&#x2087;" horiz-adv-x="420" 
d="M95 -96q0 94 40.5 150.5t135.5 74.5v12h-246v135h380v-145q-81 -31 -113 -88.5t-32 -138.5h-165z" />
    <glyph glyph-name="uni2088" unicode="&#x2088;" horiz-adv-x="502" 
d="M381 93q42 -1 69 -26t27 -59q0 -56 -51 -87t-175 -31t-175 31t-51 87q0 34 27 59t69 26v15q-41 0 -63.5 21.5t-22.5 57.5q0 103 216 103t216 -103q0 -36 -22.5 -57.5t-63.5 -21.5v-15zM187 178q-17 -7 -17 -19t17 -19t64 -7t64 7t17 19t-17 19t-64 7t-64 -7zM324 2
q18 7 18 22t-18 22t-73 7t-73 -7t-18 -22t18 -22t73 -7t73 7z" />
    <glyph glyph-name="uni2089" unicode="&#x2089;" horiz-adv-x="493" 
d="M79.5 -75q-54.5 35 -54.5 88v2h145v-1q0 -24 71 -24q44 0 68 22t24 60v10h-12q-12 -25 -41 -36t-91 -11q-84 0 -126.5 33t-42.5 85q0 66 51 101.5t168 35.5q118 0 173.5 -50t55.5 -150q0 -99 -54 -149.5t-167 -50.5t-167.5 35zM323 152q0 38 -79 38t-79 -38q0 -37 79 -37
t79 37z" />
    <glyph glyph-name="uni20A9" unicode="&#x20a9;" horiz-adv-x="1140" 
d="M1135 385h-110l-13 -60h123v-120h-148l-42 -205h-295l-49 219q-13 61 -17 98.5t-4 117.5v5h-20v-5q0 -80 -4 -117.5t-17 -98.5l-49 -219h-295l-42 205h-148v120h123l-13 60h-110v120h85l-40 195h255l48 -358q14 -101 14 -181v-11h20v11q0 55 2.5 96.5t10.5 84.5l48 248
h244l48 -248q8 -43 10.5 -84.5t2.5 -96.5v-11h20v11q0 80 14 181l48 358h255l-40 -195h85v-120z" />
    <glyph glyph-name="Euro" unicode="&#x20ac;" horiz-adv-x="937" 
d="M892 485q-54 19 -114 29t-150 10q-147 0 -214 -54h286v-100h-339q-1 -7 -1 -20t1 -20h339v-100h-286q67 -54 214 -54q90 0 150 10t114 29v-180q-117 -49 -264 -49q-200 0 -322.5 65.5t-164.5 178.5h-131v100h111q-1 7 -1 20t1 20h-111v100h131q42 113 164.5 178.5
t322.5 65.5q147 0 264 -49v-180z" />
    <glyph glyph-name="uni20B4" unicode="&#x20b4;" horiz-adv-x="991" 
d="M951 470v-100h-911v100h595q11 11 11 26q0 58 -150 58q-151 0 -151 -49v-5h-250v8q0 54 40.5 101t130.5 76t230 29q145 0 234.5 -25t127.5 -64t38 -84q0 -42 -26 -71h81zM40 230v100h911v-100h-595q-11 -11 -11 -26q0 -58 150 -58q151 0 151 49v5h250v-8
q0 -54 -40.5 -101t-130.5 -76t-230 -29q-145 0 -234.5 25t-127.5 64t-38 84q0 42 26 71h-81z" />
    <glyph glyph-name="uni20B8" unicode="&#x20b8;" horiz-adv-x="790" 
d="M780 555h-770v145h770v-145zM520 0h-250v350h-260v145h770v-145h-260v-350z" />
    <glyph glyph-name="uni20B9" unicode="&#x20b9;" horiz-adv-x="845" 
d="M815 550h-127q12 -32 15 -65h112v-100h-120q-21 -61 -75.5 -100t-125.5 -40v-22q46 -4 86 -23.5t65 -57.5l95 -142h-310l-84 134q-24 38 -66.5 52t-113.5 14h-126v120h303q43 0 72 17t41 48h-416v100h416q-12 31 -41 48t-72 17h-303v150h775v-150z" />
    <glyph glyph-name="uni20BA" unicode="&#x20ba;" horiz-adv-x="840" 
d="M570 300h250v-33q0 -129 -81 -198t-249 -69h-350v201l-130 -50v115l130 50v50l-130 -50v115l130 50v219h250v-122l200 77v-115l-200 -77v-50l200 77v-115l-200 -77v-98h40q78 0 109 20t31 60v20z" />
    <glyph glyph-name="uni20BD" unicode="&#x20bd;" horiz-adv-x="940" 
d="M390 230v-40h230v-110h-230v-80h-250v80h-130v110h130v40h-130v155h130v315h461q152 0 230.5 -64.5t78.5 -170.5q0 -110 -76.5 -172.5t-232.5 -62.5h-211zM375 505v-120h213q35 0 53.5 16t18.5 44t-18.5 44t-53.5 16h-213z" />
    <glyph glyph-name="uni20BF" unicode="&#x20bf;" horiz-adv-x="901" 
d="M658 1v-135h-180v134h-70v-134h-180v134h-163v700h163v134h180v-134h70v134h180v-135q100 -7 149 -50t49 -113q0 -66 -39 -107t-114 -48v-22q88 -7 133 -52t45 -117q0 -175 -223 -189zM305 515v-80h249q26 0 39 10.5t13 29.5t-13 29.5t-39 10.5h-249zM577 185q26 0 40 12
t14 33t-14 33t-40 12h-272v-90h272z" />
    <glyph glyph-name="uni2116" unicode="&#x2116;" horiz-adv-x="1380" 
d="M65 0v700h390l210 -550h20q-17 45 -26 96.5t-9 123.5v330h240v-700h-390l-210 550h-20q17 -45 26 -96.5t9 -123.5v-330h-240zM1044.5 193.5q-45.5 23.5 -70 64.5t-24.5 92t24.5 92t70 64.5t105.5 23.5t105.5 -23.5t70 -64.5t24.5 -92t-24.5 -92t-70 -64.5t-105.5 -23.5
t-105.5 23.5zM1189.5 310.5q15.5 15.5 15.5 39.5t-15.5 39.5t-39.5 15.5t-39.5 -15.5t-15.5 -39.5t15.5 -39.5t39.5 -15.5t39.5 15.5zM1340 0h-380v130h380v-130z" />
    <glyph glyph-name="trademark" unicode="&#x2122;" horiz-adv-x="837" 
d="M240 380h-135v205h-90v115h315v-115h-90v-205zM360 380v320h179l24 -87q8 -29 10.5 -45.5t2.5 -43.5h15q0 27 2.5 43.5t10.5 45.5l24 87h179v-320h-125v114q0 45 4 68.5t16 57.5h-15l-51 -176h-105l-51 176h-15q12 -34 16 -57.5t4 -68.5v-114h-125z" />
    <glyph glyph-name="uni2150" unicode="&#x2150;" horiz-adv-x="1200" 
d="M305 443h115v-115h-390v115h130v5q0 42 11 74.5t39 87.5h-15q-25 -58 -58 -86t-82 -28v120h20q100 0 100 81v3h130v-257zM440 0h-165l520 700h165zM875 0q0 94 40.5 150.5t135.5 74.5v12h-246v135h380v-145q-81 -31 -113 -88.5t-32 -138.5h-165z" />
    <glyph glyph-name="uni2151" unicode="&#x2151;" horiz-adv-x="1243" 
d="M305 443h115v-115h-390v115h130v5q0 42 11 74.5t39 87.5h-15q-25 -58 -58 -86t-82 -28v120h20q100 0 100 81v3h130v-257zM440 0h-165l520 700h165zM829.5 21q-54.5 35 -54.5 88v2h145v-1q0 -24 71 -24q44 0 68 22t24 60v10h-12q-12 -25 -41 -36t-91 -11q-84 0 -126.5 33
t-42.5 85q0 66 51 101.5t168 35.5q118 0 173.5 -50t55.5 -150q0 -99 -54 -149.5t-167 -50.5t-167.5 35zM1073 248q0 38 -79 38t-79 -38q0 -37 79 -37t79 37z" />
    <glyph glyph-name="uni2153" unicode="&#x2153;" horiz-adv-x="1181" 
d="M305 443h115v-115h-390v115h130v5q0 42 11 74.5t39 87.5h-15q-25 -58 -58 -86t-82 -28v120h20q100 0 100 81v3h130v-257zM440 0h-165l520 700h165zM1063 221q103 -20 103 -107q0 -58 -51.5 -93t-161.5 -35q-213 0 -213 141v5h145v-2q0 -34 68 -34q38 0 53 7.5t15 21.5
q0 29 -62 29h-79v65l151 63v15q-75 -40 -175 -40h-101v115h391v-120z" />
    <glyph glyph-name="uni2154" unicode="&#x2154;" horiz-adv-x="1211" 
d="M433 515q-32 -28 -73.5 -39t-102.5 -20q-33 -5 -49 -8.5t-21 -9.5h268v-110h-420v93q0 47 28 72t65.5 34t94.5 15q46 5 66.5 10.5t20.5 20.5q0 13 -13 19.5t-49 6.5t-49.5 -8t-13.5 -24v-3h-155v7q0 67 52 105t166 38q113 0 165 -34t52 -88q0 -49 -32 -77zM470 0h-165
l520 700h165zM1093 221q103 -20 103 -107q0 -58 -51.5 -93t-161.5 -35q-213 0 -213 141v5h145v-2q0 -34 68 -34q38 0 53 7.5t15 21.5q0 29 -62 29h-79v65l151 63v15q-75 -40 -175 -40h-101v115h391v-120z" />
    <glyph glyph-name="uni2155" unicode="&#x2155;" horiz-adv-x="1205" 
d="M305 443h115v-115h-390v115h130v5q0 42 11 74.5t39 87.5h-15q-25 -58 -58 -86t-82 -28v120h20q100 0 100 81v3h130v-257zM440 0h-165l520 700h165zM825.5 21q-50.5 35 -50.5 92v6h145v-2q0 -7 15 -14t47 -7q33 0 48 9.5t15 23.5t-16 23.5t-52 9.5q-55 0 -67 -18h-140
l27 228h378v-105h-280l-10 -62h12q13 20 42.5 31t84.5 11q84 0 125 -34.5t41 -95.5q0 -60 -50 -95.5t-158 -35.5q-106 0 -156.5 35z" />
    <glyph glyph-name="uni2156" unicode="&#x2156;" horiz-adv-x="1235" 
d="M433 515q-32 -28 -73.5 -39t-102.5 -20q-33 -5 -49 -8.5t-21 -9.5h268v-110h-420v93q0 47 28 72t65.5 34t94.5 15q46 5 66.5 10.5t20.5 20.5q0 13 -13 19.5t-49 6.5t-49.5 -8t-13.5 -24v-3h-155v7q0 67 52 105t166 38q113 0 165 -34t52 -88q0 -49 -32 -77zM470 0h-165
l520 700h165zM855.5 21q-50.5 35 -50.5 92v6h145v-2q0 -7 15 -14t47 -7q33 0 48 9.5t15 23.5t-16 23.5t-52 9.5q-55 0 -67 -18h-140l27 228h378v-105h-280l-10 -62h12q13 20 42.5 31t84.5 11q84 0 125 -34.5t41 -95.5q0 -60 -50 -95.5t-158 -35.5q-106 0 -156.5 35z" />
    <glyph glyph-name="uni2157" unicode="&#x2157;" horiz-adv-x="1181" 
d="M343 549q103 -20 103 -107q0 -58 -51.5 -93t-161.5 -35q-213 0 -213 141v5h145v-2q0 -34 68 -34q38 0 53 7.5t15 21.5q0 29 -62 29h-79v65l151 63v15q-75 -40 -175 -40h-101v115h391v-120zM416 0h-165l520 700h165zM801.5 21q-50.5 35 -50.5 92v6h145v-2q0 -7 15 -14
t47 -7q33 0 48 9.5t15 23.5t-16 23.5t-52 9.5q-55 0 -67 -18h-140l27 228h378v-105h-280l-10 -62h12q13 20 42.5 31t84.5 11q84 0 125 -34.5t41 -95.5q0 -60 -50 -95.5t-158 -35.5q-106 0 -156.5 35z" />
    <glyph glyph-name="uni2158" unicode="&#x2158;" horiz-adv-x="1225" 
d="M395 486h65v-105h-65v-53h-145v53h-230v100l165 219h210v-214zM175 501v-15h85v46q0 37 6.5 63.5t19.5 54.5h-15q-6 -25 -16.5 -43.5t-29.5 -42.5zM460 0h-165l520 700h165zM845.5 21q-50.5 35 -50.5 92v6h145v-2q0 -7 15 -14t47 -7q33 0 48 9.5t15 23.5t-16 23.5
t-52 9.5q-55 0 -67 -18h-140l27 228h378v-105h-280l-10 -62h12q13 20 42.5 31t84.5 11q84 0 125 -34.5t41 -95.5q0 -60 -50 -95.5t-158 -35.5q-106 0 -156.5 35z" />
    <glyph glyph-name="uni2159" unicode="&#x2159;" horiz-adv-x="1243" 
d="M305 443h115v-115h-390v115h130v5q0 42 11 74.5t39 87.5h-15q-25 -58 -58 -86t-82 -28v120h20q100 0 100 81v3h130v-257zM440 0h-165l520 700h165zM830.5 36q-55.5 50 -55.5 150q0 99 54 149.5t167 50.5q114 0 168 -36t54 -92v-2h-145v1q0 10 -17.5 19.5t-53.5 9.5
q-45 0 -68.5 -22.5t-23.5 -64.5v-10h12q12 25 41 36t91 11q84 0 126.5 -32.5t42.5 -83.5q0 -64 -51 -99t-168 -35q-118 0 -173.5 50zM1078 121q0 35 -79 35t-79 -35t79 -35t79 35z" />
    <glyph glyph-name="uni215A" unicode="&#x215a;" horiz-adv-x="1213" 
d="M75.5 349q-50.5 35 -50.5 92v6h145v-2q0 -7 15 -14t47 -7q33 0 48 9.5t15 23.5t-16 23.5t-52 9.5q-55 0 -67 -18h-140l27 228h378v-105h-280l-10 -62h12q13 20 42.5 31t84.5 11q84 0 125 -34.5t41 -95.5q0 -60 -50 -95.5t-158 -35.5q-106 0 -156.5 35zM410 0h-165
l520 700h165zM800.5 36q-55.5 50 -55.5 150q0 99 54 149.5t167 50.5q114 0 168 -36t54 -92v-2h-145v1q0 10 -17.5 19.5t-53.5 9.5q-45 0 -68.5 -22.5t-23.5 -64.5v-10h12q12 25 41 36t91 11q84 0 126.5 -32.5t42.5 -83.5q0 -64 -51 -99t-168 -35q-118 0 -173.5 50zM1048 121
q0 35 -79 35t-79 -35t79 -35t79 35z" />
    <glyph glyph-name="oneeighth" unicode="&#x215b;" horiz-adv-x="1252" 
d="M305 443h115v-115h-390v115h130v5q0 42 11 74.5t39 87.5h-15q-25 -58 -58 -86t-82 -28v120h20q100 0 100 81v3h130v-257zM440 0h-165l520 700h165zM1131 189q42 -1 69 -26t27 -59q0 -56 -51 -87t-175 -31t-175 31t-51 87q0 34 27 59t69 26v15q-41 0 -63.5 21.5
t-22.5 57.5q0 103 216 103t216 -103q0 -36 -22.5 -57.5t-63.5 -21.5v-15zM937 274q-17 -7 -17 -19t17 -19t64 -7t64 7t17 19t-17 19t-64 7t-64 -7zM1074 98q18 7 18 22t-18 22t-73 7t-73 -7t-18 -22t18 -22t73 -7t73 7z" />
    <glyph glyph-name="threeeighths" unicode="&#x215c;" horiz-adv-x="1228" 
d="M343 549q103 -20 103 -107q0 -58 -51.5 -93t-161.5 -35q-213 0 -213 141v5h145v-2q0 -34 68 -34q38 0 53 7.5t15 21.5q0 29 -62 29h-79v65l151 63v15q-75 -40 -175 -40h-101v115h391v-120zM416 0h-165l520 700h165zM1107 189q42 -1 69 -26t27 -59q0 -56 -51 -87t-175 -31
t-175 31t-51 87q0 34 27 59t69 26v15q-41 0 -63.5 21.5t-22.5 57.5q0 103 216 103t216 -103q0 -36 -22.5 -57.5t-63.5 -21.5v-15zM913 274q-17 -7 -17 -19t17 -19t64 -7t64 7t17 19t-17 19t-64 7t-64 -7zM1050 98q18 7 18 22t-18 22t-73 7t-73 -7t-18 -22t18 -22t73 -7t73 7
z" />
    <glyph glyph-name="fiveeighths" unicode="&#x215d;" horiz-adv-x="1222" 
d="M75.5 349q-50.5 35 -50.5 92v6h145v-2q0 -7 15 -14t47 -7q33 0 48 9.5t15 23.5t-16 23.5t-52 9.5q-55 0 -67 -18h-140l27 228h378v-105h-280l-10 -62h12q13 20 42.5 31t84.5 11q84 0 125 -34.5t41 -95.5q0 -60 -50 -95.5t-158 -35.5q-106 0 -156.5 35zM410 0h-165
l520 700h165zM1101 189q42 -1 69 -26t27 -59q0 -56 -51 -87t-175 -31t-175 31t-51 87q0 34 27 59t69 26v15q-41 0 -63.5 21.5t-22.5 57.5q0 103 216 103t216 -103q0 -36 -22.5 -57.5t-63.5 -21.5v-15zM907 274q-17 -7 -17 -19t17 -19t64 -7t64 7t17 19t-17 19t-64 7t-64 -7z
M1044 98q18 7 18 22t-18 22t-73 7t-73 -7t-18 -22t18 -22t73 -7t73 7z" />
    <glyph glyph-name="seveneighths" unicode="&#x215e;" horiz-adv-x="1157" 
d="M95 328q0 94 40.5 150.5t135.5 74.5v12h-246v135h380v-145q-81 -31 -113 -88.5t-32 -138.5h-165zM345 0h-165l520 700h165zM1036 189q42 -1 69 -26t27 -59q0 -56 -51 -87t-175 -31t-175 31t-51 87q0 34 27 59t69 26v15q-41 0 -63.5 21.5t-22.5 57.5q0 103 216 103
t216 -103q0 -36 -22.5 -57.5t-63.5 -21.5v-15zM842 274q-17 -7 -17 -19t17 -19t64 -7t64 7t17 19t-17 19t-64 7t-64 -7zM979 98q18 7 18 22t-18 22t-73 7t-73 -7t-18 -22t18 -22t73 -7t73 7z" />
    <glyph glyph-name="uni215F" unicode="&#x215f;" horiz-adv-x="750" 
d="M305 443h115v-115h-390v115h130v5q0 42 11 74.5t39 87.5h-15q-25 -58 -58 -86t-82 -28v120h20q100 0 100 81v3h130v-257zM440 0h-165l520 700h165z" />
    <glyph glyph-name="arrowleft" unicode="&#x2190;" horiz-adv-x="1100" 
d="M380 32q0 118 -64.5 183t-181.5 65h-19v140h19q117 0 181.5 65t64.5 183v22h200v-42q0 -78 -28.5 -130t-109.5 -73v-20q94 30 185 30h368v-210h-368q-91 0 -185 30v-20q81 -21 109.5 -73t28.5 -130v-42h-200v22z" />
    <glyph glyph-name="arrowup" unicode="&#x2191;" horiz-adv-x="1100" 
d="M445 288q0 91 30 185h-20q-21 -81 -72.5 -109.5t-130.5 -28.5h-42v200h22q118 0 183 64.5t65 181.5v19h140v-19q0 -117 65 -181.5t183 -64.5h22v-200h-42q-79 0 -130.5 28.5t-72.5 109.5h-20q30 -94 30 -185v-388h-210v388z" />
    <glyph glyph-name="arrowright" unicode="&#x2192;" horiz-adv-x="1100" 
d="M520 52q0 78 28.5 130t109.5 73v20q-94 -30 -185 -30h-368v210h368q91 0 185 -30v20q-81 21 -109.5 73t-28.5 130v42h200v-22q0 -118 64.5 -183t181.5 -65h19v-140h-19q-117 0 -181.5 -65t-64.5 -183v-22h-200v42z" />
    <glyph glyph-name="arrowdown" unicode="&#x2193;" horiz-adv-x="1100" 
d="M480 -81q0 117 -65 181.5t-183 64.5h-22v200h42q79 0 130.5 -28.5t72.5 -109.5h20q-30 94 -30 185v388h210v-388q0 -91 -30 -185h20q21 81 72.5 109.5t130.5 28.5h42v-200h-22q-118 0 -183 -64.5t-65 -181.5v-19h-140v19z" />
    <glyph glyph-name="arrowboth" unicode="&#x2194;" horiz-adv-x="1100" 
d="M305 72q0 103 -55.5 160.5t-150.5 57.5h-9v120h9q95 0 150.5 57.5t55.5 160.5v32h170v-32q0 -68 -23.5 -115t-84.5 -68v-20q40 11 68 15.5t67 4.5h96q39 0 67 -4.5t68 -15.5v20q-61 21 -84.5 68t-23.5 115v32h170v-32q0 -103 55.5 -160.5t150.5 -57.5h9v-120h-9
q-95 0 -150.5 -57.5t-55.5 -160.5v-32h-170v32q0 68 23.5 115t84.5 68v20q-40 -11 -68 -15.5t-67 -4.5h-96q-39 0 -67 4.5t-68 15.5v-20q61 -21 84.5 -68t23.5 -115v-32h-170v32z" />
    <glyph glyph-name="arrowupdn" unicode="&#x2195;" horiz-adv-x="1100" 
d="M490 -101q0 95 -57.5 150.5t-160.5 55.5h-32v170h32q68 0 115 -23.5t68 -84.5h20q-11 40 -15.5 68t-4.5 67v96q0 39 4.5 67t15.5 68h-20q-21 -61 -68 -84.5t-115 -23.5h-32v170h32q103 0 160.5 55.5t57.5 150.5v9h120v-9q0 -95 57.5 -150.5t160.5 -55.5h32v-170h-32
q-68 0 -115 23.5t-68 84.5h-20q11 -40 15.5 -68t4.5 -67v-96q0 -39 -4.5 -67t-15.5 -68h20q21 61 68 84.5t115 23.5h32v-170h-32q-103 0 -160.5 -55.5t-57.5 -150.5v-9h-120v9z" />
    <glyph glyph-name="uni2196" unicode="&#x2196;" horiz-adv-x="1100" 
d="M518 263q-64 64 -110 152l-14 -14q30 -50 30 -96q0 -39 -20 -74t-56 -71l-30 -30l-141 141l15 16q83 89 83 179q0 89 -81 170l-14 14l99 99l14 -14q81 -81 170 -81q90 0 179 83l16 15l141 -141l-30 -30q-36 -36 -71 -56t-74 -20q-46 0 -96 30l-14 -14q88 -46 152 -110
l314 -314l-148 -148z" />
    <glyph glyph-name="uni2197" unicode="&#x2197;" horiz-adv-x="1100" 
d="M268 -51l-148 148l314 314q64 64 152 110l-14 14q-50 -30 -96 -30q-39 0 -74 20t-71 56l-30 30l141 141l16 -15q89 -83 179 -83q89 0 170 81l14 14l99 -99l-14 -14q-81 -81 -81 -170q0 -90 83 -179l15 -16l-141 -141l-30 30q-36 36 -56 71t-20 74q0 46 30 96l-14 14
q-46 -88 -110 -152z" />
    <glyph glyph-name="uni2198" unicode="&#x2198;" horiz-adv-x="1100" 
d="M807 -34q-81 81 -170 81q-90 0 -179 -83l-16 -15l-141 141l30 30q36 36 71 56t74 20q46 0 96 -30l14 14q-88 46 -152 110l-314 314l148 148l314 -314q64 -64 110 -152l14 14q-30 50 -30 96q0 39 20 74t56 71l30 30l141 -141l-15 -16q-83 -89 -83 -179q0 -89 81 -170
l14 -14l-99 -99z" />
    <glyph glyph-name="uni2199" unicode="&#x2199;" horiz-adv-x="1100" 
d="M279 -48l-99 99l14 14q81 81 81 170q0 90 -83 179l-15 16l141 141l30 -30q36 -36 56 -71t20 -74q0 -46 -30 -96l14 -14q46 88 110 152l314 314l148 -148l-314 -314q-64 -64 -152 -110l14 -14q50 30 96 30q39 0 74 -20t71 -56l30 -30l-141 -141l-16 15q-89 83 -179 83
q-89 0 -170 -81z" />
    <glyph glyph-name="minus" unicode="&#x2212;" horiz-adv-x="600" 
d="M560 265h-520v170h520v-170z" />
    <glyph glyph-name="approxequal" unicode="&#x2248;" horiz-adv-x="620" 
d="M357 371.5q-34 11.5 -69 32.5q-24 14 -39.5 20t-32.5 6q-13 0 -22 -8t-9 -19q0 -15 5 -33h-132q-13 30 -13 71q0 57 35.5 90.5t98.5 33.5q50 0 84 -11.5t69 -32.5q24 -14 39.5 -20t32.5 -6q13 0 22 8t9 19q0 15 -5 33h132q13 -30 13 -71q0 -57 -35.5 -90.5t-98.5 -33.5
q-50 0 -84 11.5zM357 146.5q-34 11.5 -69 32.5q-24 14 -39.5 20t-32.5 6q-13 0 -22 -8t-9 -19q0 -15 5 -33h-132q-13 30 -13 71q0 57 35.5 90.5t98.5 33.5q50 0 84 -11.5t69 -32.5q24 -14 39.5 -20t32.5 -6q13 0 22 8t9 19q0 15 -5 33h132q13 -30 13 -71q0 -57 -35.5 -90.5
t-98.5 -33.5q-50 0 -84 11.5z" />
    <glyph glyph-name="notequal" unicode="&#x2260;" horiz-adv-x="610" 
d="M565 530v-150h-173l-34 -60h207v-150h-290l-50 -90h-140l50 90h-90v150h173l34 60h-207v150h290l50 90h140l-50 -90h90z" />
    <glyph glyph-name="lessequal" unicode="&#x2264;" horiz-adv-x="590" 
d="M40 520l500 135v-155l-264 -60l264 -60v-155l-500 135v160zM540 50h-500v150h500v-150z" />
    <glyph glyph-name="greaterequal" unicode="&#x2265;" horiz-adv-x="590" 
d="M50 500v155l500 -135v-160l-500 -135v155l264 60zM550 50h-500v150h500v-150z" />
    <glyph glyph-name="uni2460" unicode="&#x2460;" horiz-adv-x="1240" 
d="M921.5 797.5q130.5 -67.5 202 -185t71.5 -262.5t-71.5 -262.5t-202 -185t-301.5 -67.5t-301.5 67.5t-202 185t-71.5 262.5t71.5 262.5t202 185t301.5 67.5t301.5 -67.5zM840.5 24.5q95.5 49.5 147.5 135t52 190.5t-52 190.5t-147.5 135t-220.5 49.5t-220.5 -49.5
t-147.5 -135t-52 -190.5t52 -190.5t147.5 -135t220.5 -49.5t220.5 49.5zM712 566v-302h125v-130h-425v130h140v28q0 29 14 68.5t41 95.5h-20q-26 -59 -60 -93.5t-90 -34.5v140h24q53 0 79.5 24.5t26.5 70.5v3h145z" />
    <glyph glyph-name="uni2461" unicode="&#x2461;" horiz-adv-x="1240" 
d="M921.5 797.5q130.5 -67.5 202 -185t71.5 -262.5t-71.5 -262.5t-202 -185t-301.5 -67.5t-301.5 67.5t-202 185t-71.5 262.5t71.5 262.5t202 185t301.5 67.5t301.5 -67.5zM840.5 24.5q95.5 49.5 147.5 135t52 190.5t-52 190.5t-147.5 135t-220.5 49.5t-220.5 -49.5
t-147.5 -135t-52 -190.5t52 -190.5t147.5 -135t220.5 -49.5t220.5 49.5zM830.5 342q-38.5 -34 -89 -45.5t-120.5 -18.5q-32 -3 -49 -6t-24 -8h311v-130h-480v107q0 57 33 87t78.5 40t111.5 16q54 5 78 11t24 24q0 12 -16.5 19t-66.5 7q-82 0 -82 -35v-3h-165v8
q0 76 60.5 120.5t187.5 44.5q126 0 186.5 -40t60.5 -101q0 -63 -38.5 -97z" />
    <glyph glyph-name="uni2462" unicode="&#x2462;" horiz-adv-x="1240" 
d="M921.5 797.5q130.5 -67.5 202 -185t71.5 -262.5t-71.5 -262.5t-202 -185t-301.5 -67.5t-301.5 67.5t-202 185t-71.5 262.5t71.5 262.5t202 185t301.5 67.5t301.5 -67.5zM840.5 24.5q95.5 49.5 147.5 135t52 190.5t-52 190.5t-147.5 135t-220.5 49.5t-220.5 -49.5
t-147.5 -135t-52 -190.5t52 -190.5t147.5 -135t220.5 -49.5t220.5 49.5zM760 397q109 -27 109 -129q0 -67 -59.5 -107.5t-186.5 -40.5q-246 0 -246 163v6h160v-3q0 -41 86 -41t86 33q0 15 -18 24.5t-61 9.5h-93v80l172 69v20q-104 -45 -218 -45h-99v130h457v-137z" />
    <glyph glyph-name="uni2463" unicode="&#x2463;" horiz-adv-x="1240" 
d="M318.5 -97.5q-130.5 67.5 -202 185t-71.5 262.5t71.5 262.5t202 185t301.5 67.5t301.5 -67.5t202 -185t71.5 -262.5t-71.5 -262.5t-202 -185t-301.5 -67.5t-301.5 67.5zM840.5 24.5q95.5 49.5 147.5 135t52 190.5t-52 190.5t-147.5 135t-220.5 49.5t-220.5 -49.5
t-147.5 -135t-52 -190.5t52 -190.5t147.5 -135t220.5 -49.5t220.5 49.5zM790 134h-160v65h-272v120l187 247h245v-242h70v-125h-70v-65zM543 324h97v51q0 35 7 71.5t19 59.5h-20q-10 -30 -22.5 -52.5t-31.5 -46.5l-49 -63v-20z" />
    <glyph glyph-name="uni2464" unicode="&#x2464;" horiz-adv-x="1240" 
d="M318.5 -97.5q-130.5 67.5 -202 185t-71.5 262.5t71.5 262.5t202 185t301.5 67.5t301.5 -67.5t202 -185t71.5 -262.5t-71.5 -262.5t-202 -185t-301.5 -67.5t-301.5 67.5zM840.5 24.5q95.5 49.5 147.5 135t52 190.5t-52 190.5t-147.5 135t-220.5 49.5t-220.5 -49.5
t-147.5 -135t-52 -190.5t52 -190.5t147.5 -135t220.5 -49.5t220.5 49.5zM438.5 160q-58.5 40 -58.5 107v7h160v-3q0 -9 19.5 -17.5t62.5 -8.5t63 11t20 26q0 17 -20.5 28t-67.5 11q-61 0 -87 -17h-155l31 262h444v-120h-324l-11 -78h17q13 26 45 39.5t96 13.5q96 0 144 -40
t48 -110q0 -69 -58.5 -110t-184.5 -41q-125 0 -183.5 40z" />
    <glyph glyph-name="uni2465" unicode="&#x2465;" horiz-adv-x="1240" 
d="M318.5 -97.5q-130.5 67.5 -202 185t-71.5 262.5t71.5 262.5t202 185t301.5 67.5t301.5 -67.5t202 -185t71.5 -262.5t-71.5 -262.5t-202 -185t-301.5 -67.5t-301.5 67.5zM840.5 24.5q95.5 49.5 147.5 135t52 190.5t-52 190.5t-147.5 135t-220.5 49.5t-220.5 -49.5
t-147.5 -135t-52 -190.5t52 -190.5t147.5 -135t220.5 -49.5t220.5 49.5zM427 179q-65 59 -65 171q0 114 63.5 172t196.5 58q128 0 189.5 -41.5t61.5 -105.5v-2h-160v1q0 12 -21 22.5t-64 10.5q-58 0 -87 -26t-29 -74v-12h17q19 27 52.5 40t101.5 13q97 0 146 -37t49 -95
q0 -154 -253 -154q-133 0 -198 59zM697 244.5q21 9.5 21 26.5q0 35 -98 35t-98 -35q0 -17 21 -26.5t77 -9.5t77 9.5z" />
    <glyph glyph-name="uni2466" unicode="&#x2466;" horiz-adv-x="1240" 
d="M318.5 -97.5q-130.5 67.5 -202 185t-71.5 262.5t71.5 262.5t202 185t301.5 67.5t301.5 -67.5t202 -185t71.5 -262.5t-71.5 -262.5t-202 -185t-301.5 -67.5t-301.5 67.5zM840.5 24.5q95.5 49.5 147.5 135t52 190.5t-52 190.5t-147.5 135t-220.5 49.5t-220.5 -49.5
t-147.5 -135t-52 -190.5t52 -190.5t147.5 -135t220.5 -49.5t220.5 49.5zM487 134q0 216 200 262v20h-285v150h445v-160q-180 -57 -180 -272h-180z" />
    <glyph glyph-name="uni2467" unicode="&#x2467;" horiz-adv-x="1240" 
d="M318.5 -97.5q-130.5 67.5 -202 185t-71.5 262.5t71.5 262.5t202 185t301.5 67.5t301.5 -67.5t202 -185t71.5 -262.5t-71.5 -262.5t-202 -185t-301.5 -67.5t-301.5 67.5zM840.5 24.5q95.5 49.5 147.5 135t52 190.5t-52 190.5t-147.5 135t-220.5 49.5t-220.5 -49.5
t-147.5 -135t-52 -190.5t52 -190.5t147.5 -135t220.5 -49.5t220.5 49.5zM419.5 155.5q-57.5 35.5 -57.5 100.5q0 23 14 45.5t39 36.5t58 14v20q-48 0 -73.5 25.5t-25.5 64.5q0 118 246 118t246 -118q0 -39 -25.5 -64.5t-73.5 -25.5v-20q33 0 58 -14t39 -36.5t14 -45.5
q0 -65 -57.5 -100.5t-200.5 -35.5t-200.5 35.5zM692 408q19 8 19 22t-19 22t-72 8t-72 -8t-19 -22t19 -22t72 -8t72 8zM701.5 248.5q21.5 8.5 21.5 23.5q0 16 -21 24.5t-82 8.5t-82 -8.5t-21 -24.5q0 -15 21.5 -23.5t81.5 -8.5t81.5 8.5z" />
    <glyph glyph-name="uni2468" unicode="&#x2468;" horiz-adv-x="1240" 
d="M318.5 -97.5q-130.5 67.5 -202 185t-71.5 262.5t71.5 262.5t202 185t301.5 67.5t301.5 -67.5t202 -185t71.5 -262.5t-71.5 -262.5t-202 -185t-301.5 -67.5t-301.5 67.5zM840.5 24.5q95.5 49.5 147.5 135t52 190.5t-52 190.5t-147.5 135t-220.5 49.5t-220.5 -49.5
t-147.5 -135t-52 -190.5t52 -190.5t147.5 -135t220.5 -49.5t220.5 49.5zM428.5 160.5q-61.5 40.5 -61.5 101.5v2h160v-1q0 -9 20.5 -18.5t64.5 -9.5q58 0 87 25t29 70v12h-17q-19 -27 -52.5 -40t-101.5 -13q-97 0 -146 38t-49 99q0 154 253 154q133 0 198 -59t65 -171
q0 -114 -63.5 -172t-196.5 -58q-128 0 -189.5 40.5zM697 399.5q21 10.5 21 29.5q0 17 -21 26.5t-77 9.5t-77 -9.5t-21 -26.5q0 -19 21 -29.5t77 -10.5t77 10.5z" />
    <glyph glyph-name="uni24EA" unicode="&#x24ea;" horiz-adv-x="1240" 
d="M318.5 -97.5q-130.5 67.5 -202 185t-71.5 262.5t71.5 262.5t202 185t301.5 67.5t301.5 -67.5t202 -185t71.5 -262.5t-71.5 -262.5t-202 -185t-301.5 -67.5t-301.5 67.5zM840.5 24.5q95.5 49.5 147.5 135t52 190.5t-52 190.5t-147.5 135t-220.5 49.5t-220.5 -49.5
t-147.5 -135t-52 -190.5t52 -190.5t147.5 -135t220.5 -49.5t220.5 49.5zM487.5 149.5q-56.5 29.5 -87 81.5t-30.5 119t30.5 119t87 81.5t132.5 29.5t132.5 -29.5t87 -81.5t30.5 -119t-30.5 -119t-87 -81.5t-132.5 -29.5t-132.5 29.5zM677.5 288.5q22.5 23.5 22.5 61.5
t-22.5 61.5t-57.5 23.5t-57.5 -23.5t-22.5 -61.5t22.5 -61.5t57.5 -23.5t57.5 23.5z" />
    <glyph glyph-name="uni24FF" unicode="&#x24ff;" horiz-adv-x="1240" 
d="M318.5 -97.5q-130.5 67.5 -202 185t-71.5 262.5t71.5 262.5t202 185t301.5 67.5t301.5 -67.5t202 -185t71.5 -262.5t-71.5 -262.5t-202 -185t-301.5 -67.5t-301.5 67.5zM752.5 149.5q56.5 29.5 87 81.5t30.5 119t-30.5 119t-87 81.5t-132.5 29.5t-132.5 -29.5t-87 -81.5
t-30.5 -119t30.5 -119t87 -81.5t132.5 -29.5t132.5 29.5zM562.5 288.5q-22.5 23.5 -22.5 61.5t22.5 61.5t57.5 23.5t57.5 -23.5t22.5 -61.5t-22.5 -61.5t-57.5 -23.5t-57.5 23.5z" />
    <glyph glyph-name="uni2776" unicode="&#x2776;" horiz-adv-x="1240" 
d="M318.5 -97.5q-130.5 67.5 -202 185t-71.5 262.5t71.5 262.5t202 185t301.5 67.5t301.5 -67.5t202 -185t71.5 -262.5t-71.5 -262.5t-202 -185t-301.5 -67.5t-301.5 67.5zM412 134h425v130h-125v302h-145v-3q0 -46 -26.5 -70.5t-79.5 -24.5h-24v-140q56 0 90 34.5t60 93.5
h20q-27 -56 -41 -95.5t-14 -68.5v-28h-140v-130z" />
    <glyph glyph-name="uni2777" unicode="&#x2777;" horiz-adv-x="1240" 
d="M318.5 -97.5q-130.5 67.5 -202 185t-71.5 262.5t71.5 262.5t202 185t301.5 67.5t301.5 -67.5t202 -185t71.5 -262.5t-71.5 -262.5t-202 -185t-301.5 -67.5t-301.5 67.5zM379 134h480v130h-311q0 8 97 17q99 10 161.5 43t62.5 115q0 61 -60.5 101t-186.5 40
q-127 0 -187.5 -44.5t-60.5 -120.5v-8h165v3q0 35 82 35q50 0 66.5 -7t16.5 -19q0 -18 -24 -24t-78 -11q-66 -6 -111.5 -16t-78.5 -40t-33 -87v-107z" />
    <glyph glyph-name="uni2778" unicode="&#x2778;" horiz-adv-x="1240" 
d="M318.5 -97.5q-130.5 67.5 -202 185t-71.5 262.5t71.5 262.5t202 185t301.5 67.5t301.5 -67.5t202 -185t71.5 -262.5t-71.5 -262.5t-202 -185t-301.5 -67.5t-301.5 67.5zM809.5 160.5q59.5 40.5 59.5 107.5q0 57 -34 91q-17 17 -43 27.5t-33 10.5l90 32v137h-457v-130h99
q114 0 218 45v-20l-172 -69v-80h93q43 0 61 -9.5t18 -24.5q0 -33 -86 -33t-86 41v3h-160v-6q0 -163 246 -163q127 0 186.5 40.5z" />
    <glyph glyph-name="uni2779" unicode="&#x2779;" horiz-adv-x="1240" 
d="M318.5 -97.5q-130.5 67.5 -202 185t-71.5 262.5t71.5 262.5t202 185t301.5 67.5t301.5 -67.5t202 -185t71.5 -262.5t-71.5 -262.5t-202 -185t-301.5 -67.5t-301.5 67.5zM630 199v-65h160v65h70v125h-70v242h-245l-187 -247v-120h272zM543 324v20l49 63q19 24 31.5 46.5
t22.5 52.5h20q-12 -23 -19 -59.5t-7 -71.5v-51h-97z" />
    <glyph glyph-name="uni277A" unicode="&#x277a;" horiz-adv-x="1240" 
d="M318.5 -97.5q-130.5 67.5 -202 185t-71.5 262.5t71.5 262.5t202 185t301.5 67.5t301.5 -67.5t202 -185t71.5 -262.5t-71.5 -262.5t-202 -185t-301.5 -67.5t-301.5 67.5zM806.5 161q58.5 41 58.5 110q0 70 -48 110t-144 40q-64 0 -96 -13.5t-45 -39.5h-17l11 78h324v120
h-444l-31 -262h155q26 17 87 17q47 0 67.5 -11t20.5 -28q0 -15 -20 -26t-63 -11t-62.5 8.5t-19.5 17.5v3h-160v-7q0 -67 58.5 -107t183.5 -40q126 0 184.5 41z" />
    <glyph glyph-name="uni277B" unicode="&#x277b;" horiz-adv-x="1240" 
d="M318.5 -97.5q-130.5 67.5 -202 185t-71.5 262.5t71.5 262.5t202 185t301.5 67.5t301.5 -67.5t202 -185t71.5 -262.5t-71.5 -262.5t-202 -185t-301.5 -67.5t-301.5 67.5zM878 274q0 58 -49 95t-146 37q-68 0 -101.5 -13t-52.5 -40h-17v12q0 48 29 74t87 26q43 0 64 -10.5
t21 -22.5v-1h160v2q0 64 -61.5 105.5t-189.5 41.5q-133 0 -196.5 -58t-63.5 -172q0 -112 65 -171t198 -59q253 0 253 154zM543 244.5q-21 9.5 -21 26.5q0 35 98 35t98 -35q0 -17 -21 -26.5t-77 -9.5t-77 9.5z" />
    <glyph glyph-name="uni277C" unicode="&#x277c;" horiz-adv-x="1240" 
d="M318.5 -97.5q-130.5 67.5 -202 185t-71.5 262.5t71.5 262.5t202 185t301.5 67.5t301.5 -67.5t202 -185t71.5 -262.5t-71.5 -262.5t-202 -185t-301.5 -67.5t-301.5 67.5zM667 134q0 215 180 272v160h-445v-150h285v-20q-200 -46 -200 -262h180z" />
    <glyph glyph-name="uni277D" unicode="&#x277d;" horiz-adv-x="1240" 
d="M318.5 -97.5q-130.5 67.5 -202 185t-71.5 262.5t71.5 262.5t202 185t301.5 67.5t301.5 -67.5t202 -185t71.5 -262.5t-71.5 -262.5t-202 -185t-301.5 -67.5t-301.5 67.5zM820.5 155.5q57.5 35.5 57.5 100.5q0 23 -14 45.5t-39 36.5t-58 14v20q48 0 73.5 25.5t25.5 64.5
q0 118 -246 118t-246 -118q0 -39 25.5 -64.5t73.5 -25.5v-20q-33 0 -58 -14t-39 -36.5t-14 -45.5q0 -65 57.5 -100.5t200.5 -35.5t200.5 35.5zM548 408q-19 8 -19 22t19 22t72 8t72 -8t19 -22t-19 -22t-72 -8t-72 8zM538.5 248.5q-21.5 8.5 -21.5 23.5q0 16 21 24.5t82 8.5
t82 -8.5t21 -24.5q0 -15 -21.5 -23.5t-81.5 -8.5t-81.5 8.5z" />
    <glyph glyph-name="uni277E" unicode="&#x277e;" horiz-adv-x="1240" 
d="M318.5 -97.5q-130.5 67.5 -202 185t-71.5 262.5t71.5 262.5t202 185t301.5 67.5t301.5 -67.5t202 -185t71.5 -262.5t-71.5 -262.5t-202 -185t-301.5 -67.5t-301.5 67.5zM814.5 178q63.5 58 63.5 172q0 112 -65 171t-198 59q-253 0 -253 -154q0 -61 49 -99t146 -38
q68 0 101.5 13t52.5 40h17v-12q0 -45 -29 -70t-87 -25q-44 0 -64.5 9.5t-20.5 18.5v1h-160v-2q0 -61 61.5 -101.5t189.5 -40.5q133 0 196.5 58zM543 399.5q-21 10.5 -21 29.5q0 17 21 26.5t77 9.5t77 -9.5t21 -26.5q0 -19 -21 -29.5t-77 -10.5t-77 10.5z" />
    <glyph glyph-name="Iacute_J.loclNLD" horiz-adv-x="1495" 
d="M685 0h-640v195h195v310h-195v195h640v-195h-195v-310h195v-195zM440 760h-200l90 180h250zM802.5 67q-92.5 81 -92.5 226v17h250v-7q0 -54 29.5 -83t85.5 -29t85.5 29t29.5 83v192h-380v205h630v-403q0 -147 -92 -229t-273 -82q-180 0 -272.5 81zM1200 760h-200l90 180
h250z" />
    <glyph glyph-name="i.loclTRK" horiz-adv-x="550" 
d="M400 180h140v-180h-515v180h165v108q0 26 -10.5 36t-36.5 10q-25 0 -48 -10v180q47 20 124 20q70 0 109 -15t55.5 -47.5t16.5 -89.5v-192zM180.5 594.5q-32.5 29.5 -32.5 75.5t32.5 75.5t87.5 29.5t87.5 -29.5t32.5 -75.5t-32.5 -75.5t-87.5 -29.5t-87.5 29.5z" />
    <glyph glyph-name="iacute_j.loclNLD" horiz-adv-x="920" 
d="M400 180h140v-180h-515v180h165v108q0 26 -10.5 36t-36.5 10q-25 0 -48 -10v180q47 20 124 20q70 0 109 -15t55.5 -47.5t16.5 -89.5v-192zM343 570h-200l90 180h250zM547 -205q-28 5 -57 18v175q45 -18 87 -18q83 0 83 66v252q0 26 -10.5 36t-36.5 10q-25 0 -48 -10v180
q47 20 124 20q70 0 109 -15t55.5 -47.5t16.5 -89.5v-340q0 -116 -65.5 -179t-191.5 -63q-38 0 -66 5zM813 570h-200l90 180h250z" />
    <glyph glyph-name="f_f_j" horiz-adv-x="1420" 
d="M1237 487q71 -7 99.5 -41.5t28.5 -107.5v-306q0 -116 -65.5 -179t-191.5 -63q-38 0 -66 5t-57 18v175q45 -18 87 -18q83 0 83 66v243q0 26 -10.5 36t-36.5 10h-243v-325h-220v325h-290v-325h-220v325h-130v160h177v20q-70 0 -103.5 25t-33.5 67q0 55 74 88.5t266 33.5
q94 0 164 -12t108 -31q35 20 95 31.5t143 11.5q115 0 192 -17t150 -59v-156zM682 490q-24 32 -95 55.5t-168 23.5q-95 0 -129.5 -13.5t-34.5 -35.5q0 -10 4.5 -18.5t10.5 -11.5h412zM1158 490q-28 35 -96 57t-153 22q-154 0 -154 -49q0 -10 4.5 -18.5t10.5 -11.5h388z" />
    <glyph glyph-name="f_j" horiz-adv-x="1080" 
d="M822.5 579.5q-32.5 29.5 -32.5 75.5t32.5 75.5t87.5 29.5t87.5 -29.5t32.5 -75.5t-32.5 -75.5t-87.5 -29.5t-87.5 29.5zM702 -205q-28 5 -57 18v175q45 -18 87 -18q83 0 83 66v243q0 26 -10.5 36t-36.5 10h-413v-325h-220v325h-130v160h177v20q-70 0 -103.5 25t-33.5 67
q0 122 320 122q110 0 182 -25.5t105 -68t33 -92.5v-3h-220v3q0 14 -25 25t-81 11q-55 0 -79.5 -14t-24.5 -35q0 -10 4.5 -18.5t10.5 -11.5h574q70 0 109 -15t55.5 -47.5t16.5 -89.5v-306q0 -116 -65.5 -179t-191.5 -63q-38 0 -66 5z" />
    <glyph glyph-name="f_f_i.ss01" horiz-adv-x="1420" 
d="M1237 487q71 -7 99.5 -41.5t28.5 -107.5v-338h-210v279q0 26 -10.5 36t-36.5 10h-243v-325h-220v325h-290v-325h-220v325h-130v160h177v20q-70 0 -103.5 25t-33.5 67q0 55 74 88.5t266 33.5q94 0 164 -12t108 -31q35 20 95 31.5t143 11.5q115 0 192 -17t150 -59v-156z
M682 490q-24 32 -95 55.5t-168 23.5q-95 0 -129.5 -13.5t-34.5 -35.5q0 -10 4.5 -18.5t10.5 -11.5h412zM1158 490q-28 35 -96 57t-153 22q-154 0 -154 -49q0 -10 4.5 -18.5t10.5 -11.5h388z" />
    <glyph glyph-name="fi.ss01" horiz-adv-x="920" 
d="M135 0v325h-130v160h177v20q-70 0 -103.5 25t-33.5 67q0 122 320 122q110 0 182 -25.5t105 -68t33 -92.5v-3h-220v3q0 14 -25 25t-81 11q-55 0 -79.5 -14t-24.5 -35q0 -10 4.5 -18.5t10.5 -11.5h414q70 0 109 -15t55.5 -47.5t16.5 -89.5v-338h-220v279q0 26 -10.5 36
t-36.5 10h-243v-325h-220z" />
    <glyph glyph-name="f_j.ss01" horiz-adv-x="920" 
d="M542 -205q-28 5 -57 18v175q39 -18 82 -18q78 0 78 66v243q0 26 -10.5 36t-36.5 10h-243v-325h-220v325h-130v160h177v20q-70 0 -103.5 25t-33.5 67q0 122 320 122q110 0 182 -25.5t105 -68t33 -92.5v-3h-220v3q0 14 -25 25t-81 11q-55 0 -79.5 -14t-24.5 -35
q0 -10 4.5 -18.5t10.5 -11.5h414q70 0 109 -15t55.5 -47.5t16.5 -89.5v-306q0 -116 -65.5 -179t-191.5 -63q-38 0 -66 5z" />
    <glyph glyph-name="I.ss01" horiz-adv-x="380" 
d="M315 0h-250v700h250v-700z" />
    <glyph glyph-name="Ibreve.ss01" horiz-adv-x="380" 
d="M315 0h-250v700h250v-700zM-19 808q-71 53 -81 147h200q3 -19 25 -32t65 -13q44 0 65.5 13t24.5 32h200q-10 -94 -81 -147t-209 -53t-209 53z" />
    <glyph glyph-name="Icircumflex.ss01" horiz-adv-x="380" 
d="M315 0h-250v700h250v-700zM290 950l185 -190h-225l-60 70l-60 -70h-225l185 190h200z" />
    <glyph glyph-name="Idieresis.ss01" horiz-adv-x="380" 
d="M315 0h-250v700h250v-700zM-53 788q-32 28 -32 72t32 72t88 28t88 -28t32 -72t-32 -72t-88 -28t-88 28zM257 788q-32 28 -32 72t32 72t88 28t88 -28t32 -72t-32 -72t-88 -28t-88 28z" />
    <glyph glyph-name="Idotaccent.ss01" horiz-adv-x="380" 
d="M315 0h-250v700h250v-700zM87.5 787.5q-37.5 32.5 -37.5 82.5t37.5 82.5t102.5 32.5t102.5 -32.5t37.5 -82.5t-37.5 -82.5t-102.5 -32.5t-102.5 32.5z" />
    <glyph glyph-name="Igrave.ss01" horiz-adv-x="380" 
d="M315 0h-250v700h250v-700zM330 760h-220l-170 190h280z" />
    <glyph glyph-name="Imacron.ss01" horiz-adv-x="380" 
d="M315 0h-250v700h250v-700zM435 775h-490v170h490v-170z" />
    <glyph glyph-name="Iogonek.ss01" horiz-adv-x="380" 
d="M315 0q-64 -19 -87 -36.5t-23 -37.5q0 -18 15.5 -29.5t47.5 -11.5q20 0 47 6v-130q-44 -16 -95 -16q-88 0 -131.5 34.5t-43.5 92.5q0 37 20 71t62 57h-62v700h250v-700z" />
    <glyph glyph-name="Itilde.ss01" horiz-adv-x="380" 
d="M315 0h-250v700h250v-700zM-55 755q-15 56 -15 90q0 57 30.5 88.5t85.5 31.5q41 0 75 -10t75 -27q16 -7 31 -12.5t24 -5.5q24 0 24 22q0 10 -5 33h165q15 -56 15 -90q0 -57 -30.5 -88.5t-85.5 -31.5q-41 0 -75 10t-75 27q-16 7 -31 12.5t-24 5.5q-24 0 -24 -22
q0 -10 5 -33h-165z" />
    <glyph glyph-name="Iacute.ss01" horiz-adv-x="380" 
d="M315 0h-250v700h250v-700zM270 760h-220l110 190h280z" />
    <glyph glyph-name="IJ.ss01" horiz-adv-x="1185" 
d="M315 0h-250v700h250v-700zM492.5 67q-92.5 81 -92.5 226v17h250v-7q0 -54 29.5 -83t85.5 -29t85.5 29t29.5 83v192h-380v205h630v-403q0 -147 -92 -229t-273 -82q-180 0 -272.5 81z" />
    <glyph glyph-name="Iacute_J.loclNLD.ss01" horiz-adv-x="1185" 
d="M315 0h-250v700h250v-700zM270 760h-220l110 190h280zM492.5 67q-92.5 81 -92.5 226v17h250v-7q0 -54 29.5 -83t85.5 -29t85.5 29t29.5 83v192h-380v205h630v-403q0 -147 -92 -229t-273 -82q-180 0 -272.5 81zM895 760h-220l110 190h280z" />
    <glyph glyph-name="R.ss01" horiz-adv-x="895" 
d="M600 0l-134 210h-151v-210h-250v700h484q153 0 227 -63.5t74 -181.5q0 -162 -136 -218l166 -237h-280zM300 510v-130h221q39 0 59 17.5t20 47.5t-20 47.5t-59 17.5h-221z" />
    <glyph glyph-name="Racute.ss01" horiz-adv-x="895" 
d="M600 0l-134 210h-151v-210h-250v700h484q153 0 227 -63.5t74 -181.5q0 -162 -136 -218l166 -237h-280zM300 510v-130h221q39 0 59 17.5t20 47.5t-20 47.5t-59 17.5h-221zM530 760h-220l110 190h280z" />
    <glyph glyph-name="Rcaron.ss01" horiz-adv-x="895" 
d="M600 0l-134 210h-151v-210h-250v700h484q153 0 227 -63.5t74 -181.5q0 -162 -136 -218l166 -237h-280zM300 510v-130h221q39 0 59 17.5t20 47.5t-20 47.5t-59 17.5h-221zM450 880l60 70h225l-185 -190h-200l-185 190h225z" />
    <glyph glyph-name="uni0156.ss01" horiz-adv-x="895" 
d="M600 0l-134 210h-151v-210h-250v700h484q153 0 227 -63.5t74 -181.5q0 -162 -136 -218l166 -237h-280zM300 510v-130h221q39 0 59 17.5t20 47.5t-20 47.5t-59 17.5h-221zM545 -88.5q31 -34.5 31 -100.5q0 -67 -29.5 -119t-81.5 -81.5t-119 -29.5v120h16q49 0 76.5 8
t42.5 28q-5 -1 -15 -1q-52 0 -83.5 29.5t-31.5 75.5q0 45 30.5 75t77.5 30q55 0 86 -34.5z" />
    <glyph glyph-name="a.ss01" horiz-adv-x="810" 
d="M163.5 19.5q-61.5 33.5 -95 94.5t-33.5 141t33.5 141t95 94.5t142.5 33.5q97 0 156 -35.5t83 -108.5h20l-30 130h220v-510h-220l30 130h-20q-24 -73 -83 -108.5t-156 -35.5q-81 0 -142.5 33.5zM494.5 184q35.5 28 35.5 71t-35.5 71t-101.5 28q-67 0 -102.5 -28t-35.5 -71
t35.5 -71t102.5 -28q66 0 101.5 28z" />
    <glyph glyph-name="aacute.ss01" horiz-adv-x="810" 
d="M163.5 19.5q-61.5 33.5 -95 94.5t-33.5 141t33.5 141t95 94.5t142.5 33.5q97 0 156 -35.5t83 -108.5h20l-30 130h220v-510h-220l30 130h-20q-24 -73 -83 -108.5t-156 -35.5q-81 0 -142.5 33.5zM494.5 184q35.5 28 35.5 71t-35.5 71t-101.5 28q-67 0 -102.5 -28t-35.5 -71
t35.5 -71t102.5 -28q66 0 101.5 28zM478 570h-200l90 180h250z" />
    <glyph glyph-name="abreve.ss01" horiz-adv-x="810" 
d="M163.5 19.5q-61.5 33.5 -95 94.5t-33.5 141t33.5 141t95 94.5t142.5 33.5q97 0 156 -35.5t83 -108.5h20l-30 130h220v-510h-220l30 130h-20q-24 -73 -83 -108.5t-156 -35.5q-81 0 -142.5 33.5zM494.5 184q35.5 28 35.5 71t-35.5 71t-101.5 28q-67 0 -102.5 -28t-35.5 -71
t35.5 -71t102.5 -28q66 0 101.5 28zM217.5 617q-66.5 52 -74.5 138h185q2 -22 21 -36t54 -14t54 14t21 36h185q-8 -86 -74.5 -138t-185.5 -52t-185.5 52z" />
    <glyph glyph-name="acircumflex.ss01" horiz-adv-x="810" 
d="M163.5 19.5q-61.5 33.5 -95 94.5t-33.5 141t33.5 141t95 94.5t142.5 33.5q97 0 156 -35.5t83 -108.5h20l-30 130h220v-510h-220l30 130h-20q-24 -73 -83 -108.5t-156 -35.5q-81 0 -142.5 33.5zM494.5 184q35.5 28 35.5 71t-35.5 71t-101.5 28q-67 0 -102.5 -28t-35.5 -71
t35.5 -71t102.5 -28q66 0 101.5 28zM488 750l170 -180h-200l-55 62l-55 -62h-200l170 180h170z" />
    <glyph glyph-name="adieresis.ss01" horiz-adv-x="810" 
d="M163.5 19.5q-61.5 33.5 -95 94.5t-33.5 141t33.5 141t95 94.5t142.5 33.5q97 0 156 -35.5t83 -108.5h20l-30 130h220v-510h-220l30 130h-20q-24 -73 -83 -108.5t-156 -35.5q-81 0 -142.5 33.5zM494.5 184q35.5 28 35.5 71t-35.5 71t-101.5 28q-67 0 -102.5 -28t-35.5 -71
t35.5 -71t102.5 -28q66 0 101.5 28zM196.5 605.5q-28.5 25.5 -28.5 64.5t28.5 64.5t76.5 25.5t76.5 -25.5t28.5 -64.5t-28.5 -64.5t-76.5 -25.5t-76.5 25.5zM456.5 605.5q-28.5 25.5 -28.5 64.5t28.5 64.5t76.5 25.5t76.5 -25.5t28.5 -64.5t-28.5 -64.5t-76.5 -25.5
t-76.5 25.5z" />
    <glyph glyph-name="agrave.ss01" horiz-adv-x="810" 
d="M163.5 19.5q-61.5 33.5 -95 94.5t-33.5 141t33.5 141t95 94.5t142.5 33.5q97 0 156 -35.5t83 -108.5h20l-30 130h220v-510h-220l30 130h-20q-24 -73 -83 -108.5t-156 -35.5q-81 0 -142.5 33.5zM494.5 184q35.5 28 35.5 71t-35.5 71t-101.5 28q-67 0 -102.5 -28t-35.5 -71
t35.5 -71t102.5 -28q66 0 101.5 28zM528 570h-200l-140 180h250z" />
    <glyph glyph-name="amacron.ss01" horiz-adv-x="810" 
d="M163.5 19.5q-61.5 33.5 -95 94.5t-33.5 141t33.5 141t95 94.5t142.5 33.5q97 0 156 -35.5t83 -108.5h20l-30 130h220v-510h-220l30 130h-20q-24 -73 -83 -108.5t-156 -35.5q-81 0 -142.5 33.5zM494.5 184q35.5 28 35.5 71t-35.5 71t-101.5 28q-67 0 -102.5 -28t-35.5 -71
t35.5 -71t102.5 -28q66 0 101.5 28zM633 590h-460v155h460v-155z" />
    <glyph glyph-name="aogonek.ss01" horiz-adv-x="810" 
d="M755 0q-71 -15 -95.5 -32t-24.5 -39q0 -44 70 -44q23 0 50 6v-130q-44 -16 -100 -16q-87 0 -133.5 39t-46.5 102q0 75 61 118l29 126h-20q-24 -73 -83 -108.5t-156 -35.5q-81 0 -142.5 33.5t-95 94.5t-33.5 141t33.5 141t95 94.5t142.5 33.5q97 0 156 -35.5t83 -108.5h20
l-30 130h220v-510zM494.5 184q35.5 28 35.5 71t-35.5 71t-101.5 28q-67 0 -102.5 -28t-35.5 -71t35.5 -71t102.5 -28q66 0 101.5 28z" />
    <glyph glyph-name="aring.ss01" horiz-adv-x="810" 
d="M163.5 19.5q-61.5 33.5 -95 94.5t-33.5 141t33.5 141t95 94.5t142.5 33.5q97 0 156 -35.5t83 -108.5h20l-30 130h220v-510h-220l30 130h-20q-24 -73 -83 -108.5t-156 -35.5q-81 0 -142.5 33.5zM494.5 184q35.5 28 35.5 71t-35.5 71t-101.5 28q-67 0 -102.5 -28t-35.5 -71
t35.5 -71t102.5 -28q66 0 101.5 28zM281.5 592q-43.5 37 -43.5 93t43.5 93t121.5 37t121.5 -37t43.5 -93t-43.5 -93t-121.5 -37t-121.5 37zM444 660q14 10 14 25t-14 25t-41 10t-41 -10t-14 -25t14 -25t41 -10t41 10z" />
    <glyph glyph-name="atilde.ss01" horiz-adv-x="810" 
d="M163.5 19.5q-61.5 33.5 -95 94.5t-33.5 141t33.5 141t95 94.5t142.5 33.5q97 0 156 -35.5t83 -108.5h20l-30 130h220v-510h-220l30 130h-20q-24 -73 -83 -108.5t-156 -35.5q-81 0 -142.5 33.5zM494.5 184q35.5 28 35.5 71t-35.5 71t-101.5 28q-67 0 -102.5 -28t-35.5 -71
t35.5 -71t102.5 -28q66 0 101.5 28zM173 565q-15 42 -15 80q0 56 28.5 85.5t82.5 29.5q28 0 54 -8t67 -25q49 -22 71 -22q13 0 20 6.5t7 17.5t-5 31h150q15 -42 15 -80q0 -56 -28.5 -85.5t-82.5 -29.5q-28 0 -54 8t-67 25q-50 22 -71 22q-13 0 -20 -6.5t-7 -17.5t5 -31h-150
z" />
    <glyph glyph-name="g.ss01" horiz-adv-x="810" 
d="M198 -199.5q-57 10.5 -118 31.5v180q72 -21 124 -29t103 -8q130 0 193 49.5t63 132.5v2h-17q-27 -66 -80.5 -95t-156.5 -29q-84 0 -146 31.5t-95 87t-33 126.5t33 126t94.5 86.5t143.5 31.5q97 0 156 -35.5t83 -108.5h20l-30 130h220v-285q0 -225 -104.5 -330
t-327.5 -105q-68 0 -125 10.5zM496.5 208.5q33.5 23.5 33.5 61.5q0 37 -33.5 60.5t-104.5 23.5q-70 0 -103.5 -23.5t-33.5 -60.5q0 -38 33.5 -61.5t103.5 -23.5q71 0 104.5 23.5z" />
    <glyph glyph-name="uni01F5.ss01" horiz-adv-x="810" 
d="M198 -199.5q-57 10.5 -118 31.5v180q72 -21 124 -29t103 -8q130 0 193 49.5t63 132.5v2h-17q-27 -66 -80.5 -95t-156.5 -29q-84 0 -146 31.5t-95 87t-33 126.5t33 126t94.5 86.5t143.5 31.5q97 0 156 -35.5t83 -108.5h20l-30 130h220v-285q0 -225 -104.5 -330
t-327.5 -105q-68 0 -125 10.5zM496.5 208.5q33.5 23.5 33.5 61.5q0 37 -33.5 60.5t-104.5 23.5q-70 0 -103.5 -23.5t-33.5 -60.5q0 -38 33.5 -61.5t103.5 -23.5q71 0 104.5 23.5zM477 570h-200l90 180h250z" />
    <glyph glyph-name="gbreve.ss01" horiz-adv-x="810" 
d="M198 -199.5q-57 10.5 -118 31.5v180q72 -21 124 -29t103 -8q130 0 193 49.5t63 132.5v2h-17q-27 -66 -80.5 -95t-156.5 -29q-84 0 -146 31.5t-95 87t-33 126.5t33 126t94.5 86.5t143.5 31.5q97 0 156 -35.5t83 -108.5h20l-30 130h220v-285q0 -225 -104.5 -330
t-327.5 -105q-68 0 -125 10.5zM496.5 208.5q33.5 23.5 33.5 61.5q0 37 -33.5 60.5t-104.5 23.5q-70 0 -103.5 -23.5t-33.5 -60.5q0 -38 33.5 -61.5t103.5 -23.5q71 0 104.5 23.5zM216.5 617q-66.5 52 -74.5 138h185q2 -22 21 -36t54 -14t54 14t21 36h185q-8 -86 -74.5 -138
t-185.5 -52t-185.5 52z" />
    <glyph glyph-name="gcircumflex.ss01" horiz-adv-x="810" 
d="M198 -199.5q-57 10.5 -118 31.5v180q72 -21 124 -29t103 -8q130 0 193 49.5t63 132.5v2h-17q-27 -66 -80.5 -95t-156.5 -29q-84 0 -146 31.5t-95 87t-33 126.5t33 126t94.5 86.5t143.5 31.5q97 0 156 -35.5t83 -108.5h20l-30 130h220v-285q0 -225 -104.5 -330
t-327.5 -105q-68 0 -125 10.5zM496.5 208.5q33.5 23.5 33.5 61.5q0 37 -33.5 60.5t-104.5 23.5q-70 0 -103.5 -23.5t-33.5 -60.5q0 -38 33.5 -61.5t103.5 -23.5q71 0 104.5 23.5zM487 750l170 -180h-200l-55 62l-55 -62h-200l170 180h170z" />
    <glyph glyph-name="uni0123.ss01" horiz-adv-x="810" 
d="M198 -199.5q-57 10.5 -118 31.5v180q72 -21 124 -29t103 -8q130 0 193 49.5t63 132.5v2h-17q-27 -66 -80.5 -95t-156.5 -29q-84 0 -146 31.5t-95 87t-33 126.5t33 126t94.5 86.5t143.5 31.5q97 0 156 -35.5t83 -108.5h20l-30 130h220v-285q0 -225 -104.5 -330
t-327.5 -105q-68 0 -125 10.5zM496.5 208.5q33.5 23.5 33.5 61.5q0 37 -33.5 60.5t-104.5 23.5q-70 0 -103.5 -23.5t-33.5 -60.5q0 -38 33.5 -61.5t103.5 -23.5q71 0 104.5 23.5zM503 800q-49 0 -76.5 -8t-42.5 -28q5 1 15 1q52 0 83.5 -29.5t31.5 -75.5q0 -45 -30.5 -75
t-77.5 -30q-55 0 -86 34.5t-31 100.5q0 67 29.5 119t81.5 81.5t119 29.5v-120h-16z" />
    <glyph glyph-name="gdotaccent.ss01" horiz-adv-x="810" 
d="M198 -199.5q-57 10.5 -118 31.5v180q72 -21 124 -29t103 -8q130 0 193 49.5t63 132.5v2h-17q-27 -66 -80.5 -95t-156.5 -29q-84 0 -146 31.5t-95 87t-33 126.5t33 126t94.5 86.5t143.5 31.5q97 0 156 -35.5t83 -108.5h20l-30 130h220v-285q0 -225 -104.5 -330
t-327.5 -105q-68 0 -125 10.5zM496.5 208.5q33.5 23.5 33.5 61.5q0 37 -33.5 60.5t-104.5 23.5q-70 0 -103.5 -23.5t-33.5 -60.5q0 -38 33.5 -61.5t103.5 -23.5q71 0 104.5 23.5zM314.5 594.5q-32.5 29.5 -32.5 75.5t32.5 75.5t87.5 29.5t87.5 -29.5t32.5 -75.5t-32.5 -75.5
t-87.5 -29.5t-87.5 29.5z" />
    <glyph glyph-name="i.ss01" horiz-adv-x="330" 
d="M275 0h-220v510h220v-510zM77.5 594.5q-32.5 29.5 -32.5 75.5t32.5 75.5t87.5 29.5t87.5 -29.5t32.5 -75.5t-32.5 -75.5t-87.5 -29.5t-87.5 29.5z" />
    <glyph glyph-name="dotlessi.ss01" horiz-adv-x="330" 
d="M275 0h-220v510h220v-510z" />
    <glyph glyph-name="iacute.ss01" horiz-adv-x="330" 
d="M275 0h-220v510h220v-510zM240 570h-200l90 180h250z" />
    <glyph glyph-name="ibreve.ss01" horiz-adv-x="330" 
d="M275 0h-220v510h220v-510zM-20.5 617q-66.5 52 -74.5 138h185q2 -22 21 -36t54 -14t54 14t21 36h185q-8 -86 -74.5 -138t-185.5 -52t-185.5 52z" />
    <glyph glyph-name="icircumflex.ss01" horiz-adv-x="330" 
d="M275 0h-220v510h220v-510zM250 750l170 -180h-200l-55 62l-55 -62h-200l170 180h170z" />
    <glyph glyph-name="idieresis.ss01" horiz-adv-x="330" 
d="M275 0h-220v510h220v-510zM-41.5 605.5q-28.5 25.5 -28.5 64.5t28.5 64.5t76.5 25.5t76.5 -25.5t28.5 -64.5t-28.5 -64.5t-76.5 -25.5t-76.5 25.5zM218.5 605.5q-28.5 25.5 -28.5 64.5t28.5 64.5t76.5 25.5t76.5 -25.5t28.5 -64.5t-28.5 -64.5t-76.5 -25.5t-76.5 25.5z
" />
    <glyph glyph-name="i.loclTRK.ss01" horiz-adv-x="330" 
d="M275 0h-220v510h220v-510zM77.5 594.5q-32.5 29.5 -32.5 75.5t32.5 75.5t87.5 29.5t87.5 -29.5t32.5 -75.5t-32.5 -75.5t-87.5 -29.5t-87.5 29.5z" />
    <glyph glyph-name="igrave.ss01" horiz-adv-x="330" 
d="M275 0h-220v510h220v-510zM290 570h-200l-140 180h250z" />
    <glyph glyph-name="imacron.ss01" horiz-adv-x="330" 
d="M275 0h-220v510h220v-510zM395 590h-460v155h460v-155z" />
    <glyph glyph-name="iogonek.ss01" horiz-adv-x="330" 
d="M77.5 594.5q-32.5 29.5 -32.5 75.5t32.5 75.5t87.5 29.5t87.5 -29.5t32.5 -75.5t-32.5 -75.5t-87.5 -29.5t-87.5 29.5zM55 0v510h220v-510q-64 -19 -87 -36.5t-23 -37.5q0 -18 15.5 -29.5t47.5 -11.5q20 0 47 6v-130q-44 -16 -95 -16q-88 0 -131.5 34.5t-43.5 92.5
q0 37 20 71t62 57h-32z" />
    <glyph glyph-name="itilde.ss01" horiz-adv-x="330" 
d="M275 0h-220v510h220v-510zM-65 565q-15 42 -15 80q0 56 28.5 85.5t82.5 29.5q28 0 54 -8t67 -25q49 -22 71 -22q13 0 20 6.5t7 17.5t-5 31h150q15 -42 15 -80q0 -56 -28.5 -85.5t-82.5 -29.5q-28 0 -54 8t-67 25q-50 22 -71 22q-13 0 -20 -6.5t-7 -17.5t5 -31h-150z" />
    <glyph glyph-name="ij.ss01" horiz-adv-x="685" 
d="M275 0h-220v510h220v-510zM77.5 594.5q-32.5 29.5 -32.5 75.5t32.5 75.5t87.5 29.5t87.5 -29.5t32.5 -75.5t-32.5 -75.5t-87.5 -29.5t-87.5 29.5zM307 -205q-28 5 -57 18v175q39 -18 82 -18q78 0 78 66v474h220v-478q0 -116 -65.5 -179t-191.5 -63q-38 0 -66 5z
M432.5 594.5q-32.5 29.5 -32.5 75.5t32.5 75.5t87.5 29.5t87.5 -29.5t32.5 -75.5t-32.5 -75.5t-87.5 -29.5t-87.5 29.5z" />
    <glyph glyph-name="iacute_j.loclNLD.ss01" horiz-adv-x="685" 
d="M275 0h-220v510h220v-510zM240 570h-200l90 180h250zM307 -205q-28 5 -57 18v175q39 -18 82 -18q78 0 78 66v474h220v-478q0 -116 -65.5 -179t-191.5 -63q-38 0 -66 5zM595 570h-200l90 180h250z" />
    <glyph glyph-name="j.ss01" horiz-adv-x="355" 
d="M-23 -205q-28 5 -57 18v175q39 -18 82 -18q78 0 78 66v474h220v-478q0 -116 -65.5 -179t-191.5 -63q-38 0 -66 5zM102.5 594.5q-32.5 29.5 -32.5 75.5t32.5 75.5t87.5 29.5t87.5 -29.5t32.5 -75.5t-32.5 -75.5t-87.5 -29.5t-87.5 29.5z" />
    <glyph glyph-name="uni0237.ss01" horiz-adv-x="355" 
d="M-23 -205q-28 5 -57 18v175q39 -18 82 -18q78 0 78 66v474h220v-478q0 -116 -65.5 -179t-191.5 -63q-38 0 -66 5z" />
    <glyph glyph-name="jcircumflex.ss01" horiz-adv-x="355" 
d="M-23 -205q-28 5 -57 18v175q39 -18 82 -18q78 0 78 66v474h220v-478q0 -116 -65.5 -179t-191.5 -63q-38 0 -66 5zM275 750l170 -180h-200l-55 62l-55 -62h-200l170 180h170z" />
    <glyph glyph-name="l.ss01" horiz-adv-x="340" 
d="M280 0h-220v700h220v-700z" />
    <glyph glyph-name="lacute.ss01" horiz-adv-x="340" 
d="M280 0h-220v700h220v-700zM250 760h-220l110 190h280z" />
    <glyph glyph-name="lcaron.ss01" horiz-adv-x="340" 
d="M280 0h-220v700h220v-700zM490 500h-160l20 200h190z" />
    <glyph glyph-name="uni013C.ss01" horiz-adv-x="340" 
d="M280 0h-220v700h220v-700zM257 -88.5q31 -34.5 31 -100.5q0 -67 -29.5 -119t-81.5 -81.5t-119 -29.5v120h16q49 0 76.5 8t42.5 28q-5 -1 -15 -1q-52 0 -83.5 29.5t-31.5 75.5q0 45 30.5 75t77.5 30q55 0 86 -34.5z" />
    <glyph glyph-name="ldot.ss01" horiz-adv-x="565" 
d="M280 0h-220v700h220v-700zM364 267.5q-34 32.5 -34 82.5t34 82.5t88 32.5q55 0 89 -32.5t34 -82.5t-34 -82.5t-89 -32.5q-54 0 -88 32.5z" />
    <glyph glyph-name="lslash.ss01" horiz-adv-x="410" 
d="M310 482l95 52v-148l-95 -52v-334h-220v215l-90 -49v148l90 49v337h220v-218z" />
    <glyph glyph-name="y.ss01" horiz-adv-x="783" 
d="M85 -168v180q119 -37 210 -37q121 0 181 53t60 150v2h-17q-20 -78 -70.5 -111.5t-137.5 -33.5q-123 0 -192 68.5t-69 190.5v216h220v-174q0 -60 31.5 -93t87.5 -33t87.5 33t31.5 93v174h220v-285q0 -224 -102 -329.5t-315 -105.5q-117 0 -226 42z" />
    <glyph glyph-name="yacute.ss01" horiz-adv-x="783" 
d="M85 -168v180q119 -37 210 -37q121 0 181 53t60 150v2h-17q-20 -78 -70.5 -111.5t-137.5 -33.5q-123 0 -192 68.5t-69 190.5v216h220v-174q0 -60 31.5 -93t87.5 -33t87.5 33t31.5 93v174h220v-285q0 -224 -102 -329.5t-315 -105.5q-117 0 -226 42zM464 570h-200l90 180
h250z" />
    <glyph glyph-name="ycircumflex.ss01" horiz-adv-x="783" 
d="M85 -168v180q119 -37 210 -37q121 0 181 53t60 150v2h-17q-20 -78 -70.5 -111.5t-137.5 -33.5q-123 0 -192 68.5t-69 190.5v216h220v-174q0 -60 31.5 -93t87.5 -33t87.5 33t31.5 93v174h220v-285q0 -224 -102 -329.5t-315 -105.5q-117 0 -226 42zM474 750l170 -180h-200
l-55 62l-55 -62h-200l170 180h170z" />
    </font>
</defs>
</svg>
