<?xml version="1.0" standalone="no"?>
<!DOCTYPE svg PUBLIC "-//W3C//DTD SVG 1.1//EN" "http://www.w3.org/Graphics/SVG/1.1/DTD/svg11.dtd" >
<svg xmlns="http://www.w3.org/2000/svg" xmlns:xlink="http://www.w3.org/1999/xlink" version="1.1">
<metadata>
Created by FontForge 20201107 at Mon Feb  6 14:54:44 2023
 By 
Copyright (c) 2021 by TypeType. All rights reserved. Special version for DaFont.
</metadata>
<defs>
<font id="TTTravelsNextTrl-Md" horiz-adv-x="0" >
  <font-face 
    font-family="TT Travels Next Trl Md"
    font-weight="500"
    font-stretch="normal"
    units-per-em="1000"
    panose-1="2 11 0 3 4 0 0 1 2 4"
    ascent="800"
    descent="-200"
    x-height="505"
    cap-height="700"
    bbox="-541 -297 1605 995"
    underline-thickness="90"
    underline-position="-200"
    unicode-range="U+0020-FB03"
  />
<missing-glyph horiz-adv-x="900" 
d="M100 0v284h45v-139h33v139h50v31h-128v126l19 -61h23l34 106l33 -106h23l54 170h-32l-34 -110l-35 110h-19l-35 -110l-31 103v157h700v-150h-110v-170h110v-91q-6 13 -19.5 20t-30.5 7q-27 0 -43.5 -14.5t-16.5 -34.5q0 -22 14.5 -32.5t39.5 -17.5q17 -5 25.5 -9.5
t8.5 -13.5q0 -21 -28 -21q-14 0 -21 7t-7 18h-33q0 -24 17 -39.5t44 -15.5q17 0 30.5 6.5t19.5 13.5v-163h-700zM311 380h33v62h24l35 -62h37l-40 67q36 17 36 50q0 22 -16 37.5t-41 15.5h-68v-170zM469 550v-170h33v170h-33zM580 519v-139h32v139h50v31h-132v-31h50z
M344 473v46h35q10 0 17 -6.5t7 -16.5q0 -12 -7.5 -17.5t-16.5 -5.5h-35zM800 483h-78v36h78v-36zM800 411h-78v41h78v-41zM387.5 167.5q22.5 24.5 22.5 61.5t-23 62t-59 25t-59 -25t-23 -62t22.5 -61.5t59.5 -24.5t59.5 24.5zM633 162q19 19 19 47v106h-32v-106
q0 -15 -9.5 -25t-25.5 -10q-17 0 -26.5 10.5t-9.5 24.5v106h-32v-106q0 -28 19.5 -47t48.5 -19t48 19zM800 224q-15 14 -46 22q-16 5 -23 9t-7 12q0 9 7.5 14.5t18.5 5.5q10 0 18 -7t8 -18h24v-38zM291.5 190q-14.5 16 -14.5 39q0 25 14 40.5t37 15.5q24 0 37.5 -15.5
t13.5 -40.5q0 -23 -14.5 -39t-36.5 -16t-36.5 16z" />
    <glyph glyph-name="fi" unicode="fi" horiz-adv-x="1185" 
d="M982 77h178v-77h-473v77h203v256q0 41 -17.5 58t-59.5 17h-526v-408h-92v408h-170v72h190v11q-53 5 -89 31t-36 71q0 55 67 89.5t228 34.5q155 0 225 -47t70 -126v-4h-92v5q0 47 -46 73.5t-157 26.5q-203 0 -203 -77q0 -30 26 -50t67 -38h569q72 0 105 -31t33 -95v-277z
M875.5 616.5q-17.5 15.5 -17.5 40.5t17.5 40.5t46.5 15.5t46.5 -15.5t17.5 -40.5t-17.5 -40.5t-46.5 -15.5t-46.5 15.5z" />
    <glyph glyph-name="f_f_i" unicode="ffi" horiz-adv-x="1630" 
d="M1427 77h178v-77h-473v77h203v256q0 41 -17.5 58t-59.5 17h-446v-408h-92v408h-433v-408h-92v408h-170v72h190v11q-58 6 -91.5 33t-33.5 69q0 54 60.5 89t195.5 35q98 0 166.5 -22.5t104.5 -50.5q20 32 78.5 52.5t162.5 20.5q142 0 238.5 -51t158.5 -126v-60h36
q72 0 104 -30.5t32 -95.5v-277zM704 480q-73 86 -156 125.5t-193 39.5q-93 0 -133 -21.5t-40 -55.5q0 -31 25 -50.5t68 -37.5h429zM1213 480q-128 165 -348 165q-93 0 -133 -21.5t-40 -55.5q0 -31 25 -50.5t68 -37.5h428z" />
    <glyph glyph-name=".notdef" horiz-adv-x="900" 
d="M100 0v284h45v-139h33v139h50v31h-128v126l19 -61h23l34 106l33 -106h23l54 170h-32l-34 -110l-35 110h-19l-35 -110l-31 103v157h700v-150h-110v-170h110v-91q-6 13 -19.5 20t-30.5 7q-27 0 -43.5 -14.5t-16.5 -34.5q0 -22 14.5 -32.5t39.5 -17.5q17 -5 25.5 -9.5
t8.5 -13.5q0 -21 -28 -21q-14 0 -21 7t-7 18h-33q0 -24 17 -39.5t44 -15.5q17 0 30.5 6.5t19.5 13.5v-163h-700zM311 380h33v62h24l35 -62h37l-40 67q36 17 36 50q0 22 -16 37.5t-41 15.5h-68v-170zM469 550v-170h33v170h-33zM580 519v-139h32v139h50v31h-132v-31h50z
M344 473v46h35q10 0 17 -6.5t7 -16.5q0 -12 -7.5 -17.5t-16.5 -5.5h-35zM800 483h-78v36h78v-36zM800 411h-78v41h78v-41zM387.5 167.5q22.5 24.5 22.5 61.5t-23 62t-59 25t-59 -25t-23 -62t22.5 -61.5t59.5 -24.5t59.5 24.5zM633 162q19 19 19 47v106h-32v-106
q0 -15 -9.5 -25t-25.5 -10q-17 0 -26.5 10.5t-9.5 24.5v106h-32v-106q0 -28 19.5 -47t48.5 -19t48 19zM800 224q-15 14 -46 22q-16 5 -23 9t-7 12q0 9 7.5 14.5t18.5 5.5q10 0 18 -7t8 -18h24v-38zM291.5 190q-14.5 16 -14.5 39q0 25 14 40.5t37 15.5q24 0 37.5 -15.5
t13.5 -40.5q0 -23 -14.5 -39t-36.5 -16t-36.5 16z" />
    <glyph glyph-name=".null" 
 />
    <glyph glyph-name="nonmarkingreturn" 
 />
    <glyph glyph-name="space" unicode=" " horiz-adv-x="280" 
 />
    <glyph glyph-name="exclam" unicode="!" horiz-adv-x="256" 
d="M156 184h-56l-22 165v351h100v-351zM82.5 4.5q-17.5 16.5 -17.5 41.5t17.5 41.5t45.5 16.5t45.5 -16.5t17.5 -41.5t-17.5 -41.5t-45.5 -16.5t-45.5 16.5z" />
    <glyph glyph-name="quotedbl" unicode="&#x22;" horiz-adv-x="366" 
d="M133 425h-66l-12 203v72h90v-72zM299 425h-66l-12 203v72h90v-72z" />
    <glyph glyph-name="numbersign" unicode="#" horiz-adv-x="881" 
d="M831 541v-80h-143l-54 -222h135v-80h-154l-39 -159h-82l39 159h-277l-39 -159h-82l39 159h-124v80h143l54 222h-135v80h154l39 159h82l-39 -159h277l39 159h82l-39 -159h124zM275 239h277l54 222h-277z" />
    <glyph glyph-name="dollar" unicode="$" horiz-adv-x="945" 
d="M799 49.5q-81 -54.5 -275 -60.5v-121h-98v121q-186 8 -271 75.5t-85 179.5v16h103v-14q0 -175 302 -175q171 0 236.5 33t65.5 92q0 51 -41.5 77t-103 34.5t-167.5 13.5q-126 6 -203.5 18.5t-132 52t-54.5 119.5q0 188 351 200v121h98v-121q183 -8 267 -73.5t84 -173.5v-9
h-103v9q0 76 -69.5 120.5t-227.5 44.5q-165 0 -231 -33.5t-66 -88.5q0 -45 38.5 -67.5t96 -29.5t159.5 -12q130 -5 211.5 -18t139 -55.5t57.5 -128.5q0 -92 -81 -146.5z" />
    <glyph glyph-name="percent" unicode="%" horiz-adv-x="930" 
d="M142 379q-44 23 -68 63.5t-24 91.5t24 91.5t68 63.5t103 23t103 -23t68 -63.5t24 -91.5t-24 -91.5t-68 -63.5t-103 -23t-103 23zM250 0h-90l520 700h90zM338 451q35 33 35 83t-35 83t-93 33t-93 -33t-35 -83t35 -83t93 -33t93 33zM582 11q-44 23 -68 63.5t-24 91.5
t24 91.5t68 63.5t103 23t103 -23t68 -63.5t24 -91.5t-24 -91.5t-68 -63.5t-103 -23t-103 23zM778 83q35 33 35 83t-35 83t-93 33t-93 -33t-35 -83t35 -83t93 -33t93 33z" />
    <glyph glyph-name="ampersand" unicode="&#x26;" horiz-adv-x="851" 
d="M851 51l-51 -62l-92 82q-40 -37 -116.5 -60t-190.5 -23q-177 0 -259 60t-82 165q0 190 243 218l-203 181v88h609v-78h-486v-13l433 -385v226h88v-304zM554.5 88q57.5 17 83.5 45l-263 235q-117 -4 -169.5 -43.5t-52.5 -104.5q0 -69 59.5 -109t192.5 -40q92 0 149.5 17z
" />
    <glyph glyph-name="quotesingle" unicode="'" horiz-adv-x="200" 
d="M133 425h-66l-12 203v72h90v-72z" />
    <glyph glyph-name="parenleft" unicode="(" horiz-adv-x="475" 
d="M425 -290q-169 53 -262 193t-93 352t93 352t262 193v-83q-125 -56 -193.5 -172t-68.5 -290t68.5 -290t193.5 -172v-83z" />
    <glyph glyph-name="parenright" unicode=")" horiz-adv-x="475" 
d="M50 -207q125 56 193.5 172t68.5 290t-68.5 290t-193.5 172v83q169 -53 262 -193t93 -352t-93 -352t-262 -193v83z" />
    <glyph glyph-name="asterisk" unicode="*" horiz-adv-x="480" 
d="M231 545q-1 21 -7.5 36.5t-17.5 33.5q-9 17 -13.5 27.5t-4.5 23.5q0 22 13.5 34t38.5 12t38.5 -12t13.5 -34q0 -13 -4.5 -23.5t-13.5 -27.5q-11 -18 -17.5 -33.5t-7.5 -36.5h-18zM45 551q0 12 4 23q14 38 43 38q8 0 17 -3q13 -5 22.5 -13t20.5 -21q14 -16 26.5 -26.5
t32.5 -18.5l-6 -16q-15 4 -31 4t-42 -6q-20 -5 -34 -5q-10 0 -21 3q-32 10 -32 41zM382 507q-14 0 -34 5q-26 6 -42 6t-31 -4l-6 16q20 8 32.5 18.5t26.5 26.5q11 13 20.5 21t22.5 13q9 3 17 3q14 0 25.5 -10t17.5 -28q4 -16 4 -22q0 -31 -32 -42q-11 -3 -21 -3zM97 390
q0 14 10 27q7 10 16 16t17.5 10t11.5 5q20 8 34 16.5t27 24.5l14 -9q-11 -18 -15 -33.5t-6 -37.5q-2 -20 -4.5 -31t-10.5 -22q-15 -20 -35 -20q-17 0 -34 13q-25 18 -25 41zM324 336q-20 0 -35 20q-8 11 -11 23t-5 30q-1 20 -5 36.5t-15 34.5l14 9q13 -16 27 -24.5t34 -16.5
q3 -1 13.5 -6t18 -11t13.5 -14q10 -13 10 -27q0 -23 -25 -41q-17 -13 -34 -13z" />
    <glyph glyph-name="plus" unicode="+" horiz-adv-x="600" 
d="M341 128h-82v184h-194v77h194v184h82v-184h194v-77h-194v-184z" />
    <glyph glyph-name="comma" unicode="," horiz-adv-x="216" 
d="M171 24q0 -64 -20 -111.5t-55.5 -73t-80.5 -25.5v85h8q49 0 78 24.5t34 69.5q-13 -5 -27 -5q-28 0 -45.5 16.5t-17.5 41.5t17 41.5t42 16.5q67 0 67 -80z" />
    <glyph glyph-name="hyphen" unicode="-" horiz-adv-x="530" 
d="M470 273l-410 -94v74l410 94v-74z" />
    <glyph glyph-name="period" unicode="." horiz-adv-x="216" 
d="M62.5 4.5q-17.5 16.5 -17.5 41.5t17.5 41.5t45.5 16.5t45.5 -16.5t17.5 -41.5t-17.5 -41.5t-45.5 -16.5t-45.5 16.5z" />
    <glyph glyph-name="slash" unicode="/" horiz-adv-x="505" 
d="M100 -120h-100l405 820h100z" />
    <glyph glyph-name="zero" unicode="0" horiz-adv-x="910" 
d="M250.5 35q-88.5 47 -137 129t-48.5 186t48.5 186t137 129t204.5 47t204.5 -47t137 -129t48.5 -186t-48.5 -186t-137 -129t-204.5 -47t-204.5 47zM605 111q65 35 101 97.5t36 141.5t-36 141.5t-101 97.5t-150 35t-150 -35t-101 -97.5t-36 -141.5t36 -141.5t101 -97.5
t150 -35t150 35z" />
    <glyph glyph-name="one" unicode="1" horiz-adv-x="753" 
d="M468 88h255v-88h-648v88h290v303q0 46 7 83.5t26 105.5h-13q-31 -102 -86 -147t-159 -45h-25v88h39q109 0 162.5 53.5t53.5 162.5v8h98v-612z" />
    <glyph glyph-name="two" unicode="2" horiz-adv-x="882" 
d="M180 83h632v-83h-732v117q0 100 52.5 150.5t127 66t194.5 23.5q93 6 146 15t88.5 35.5t35.5 79.5q0 142 -275 142q-143 0 -209.5 -47t-66.5 -125v-27h-103v29q0 117 92 185t287 68q199 0 288.5 -60t89.5 -161q0 -88 -48 -132t-117 -58t-184 -22q-101 -7 -159.5 -17.5
t-98.5 -43t-40 -96.5v-39z" />
    <glyph glyph-name="three" unicode="3" horiz-adv-x="886" 
d="M480 425q351 0 351 -217q0 -100 -90.5 -160t-292.5 -60q-206 0 -294.5 60t-88.5 170v27h103v-25q0 -71 63.5 -110t216.5 -39q280 0 280 141q0 140 -273 140h-141v67l377 214v13q-82 -29 -174 -29h-422v83h706v-83l-343 -192h22z" />
    <glyph glyph-name="four" unicode="4" horiz-adv-x="870" 
d="M675 223h150v-83h-150v-140h-103v140h-517v83l464 477h156v-477zM190 236v-13h387v301q0 34 4.5 64t13.5 73h-13q-33 -65 -84 -116z" />
    <glyph glyph-name="five" unicode="5" horiz-adv-x="868" 
d="M161.5 49q-89.5 61 -89.5 160v11h103v-8q0 -63 63.5 -102t206.5 -39q141 0 205.5 43t64.5 114t-64.5 114t-207.5 43q-128 0 -190.5 -29t-84.5 -66h-103l48 410h685v-83h-606l-33 -259h13q71 105 302 105q178 0 261 -62.5t83 -174.5q0 -111 -89 -174.5t-285 -63.5
q-193 0 -282.5 61z" />
    <glyph glyph-name="six" unicode="6" horiz-adv-x="901" 
d="M238 24q-89 36 -131 115t-42 211q0 185 93.5 273.5t296.5 88.5q193 0 284.5 -62t91.5 -161v-9h-103v7q0 61 -64.5 101.5t-204.5 40.5q-155 0 -225.5 -65.5t-70.5 -204.5q0 -36 2 -59h13q18 59 93.5 97t224.5 38q177 0 261 -61t84 -163q0 -101 -88.5 -162t-279.5 -61
q-146 0 -235 36zM673.5 111q64.5 40 64.5 103t-65.5 103t-210.5 40t-210.5 -40t-65.5 -103t66 -103t215 -40q142 0 206.5 40z" />
    <glyph glyph-name="seven" unicode="7" horiz-adv-x="780" 
d="M249 17q0 204 91.5 348.5t294.5 233.5v13h-580v88h680v-103q-203 -82 -290.5 -224t-87.5 -356v-17h-108v17z" />
    <glyph glyph-name="eight" unicode="8" horiz-adv-x="888" 
d="M623 355q93 -2 151.5 -47.5t58.5 -122.5q0 -93 -87.5 -145t-301.5 -52t-301.5 52t-87.5 145q0 77 58.5 122.5t151.5 47.5v13q-86 3 -138 46.5t-52 113.5q0 184 369 184t369 -184q0 -70 -52 -113.5t-138 -46.5v-13zM237 425.5q59 -31.5 207 -31.5t207 31.5t59 85.5
q0 55 -59 86.5t-207 31.5t-207 -31.5t-59 -86.5q0 -54 59 -85.5zM667 104.5q63 33.5 63 91.5t-63 91.5t-223 33.5t-223 -33.5t-63 -91.5t63 -91.5t223 -33.5t223 33.5z" />
    <glyph glyph-name="nine" unicode="9" horiz-adv-x="901" 
d="M231 17q-84 29 -122.5 77t-38.5 107v9h103v-7q0 -34 27 -64t87.5 -49t154.5 -19q154 0 225 64t71 196q0 36 -2 59h-13q-18 -59 -93.5 -97t-224.5 -38q-177 0 -261 62t-84 167q0 104 88.5 166t279.5 62q146 0 235 -36t131 -115t42 -211q0 -185 -93.5 -273.5t-296.5 -88.5
q-131 0 -215 29zM650 374q65 41 65 107t-66 107t-215 41q-143 0 -207 -41t-64 -107t65.5 -107t210.5 -41q146 0 211 41z" />
    <glyph glyph-name="colon" unicode=":" horiz-adv-x="216" 
d="M62.5 417.5q-17.5 16.5 -17.5 41.5t17.5 41.5t45.5 16.5t45.5 -16.5t17.5 -41.5t-17.5 -41.5t-45.5 -16.5t-45.5 16.5zM62.5 4.5q-17.5 16.5 -17.5 41.5t17.5 41.5t45.5 16.5t45.5 -16.5t17.5 -41.5t-17.5 -41.5t-45.5 -16.5t-45.5 16.5z" />
    <glyph glyph-name="semicolon" unicode=";" horiz-adv-x="216" 
d="M62.5 417.5q-17.5 16.5 -17.5 41.5t17.5 41.5t45.5 16.5t45.5 -16.5t17.5 -41.5t-17.5 -41.5t-45.5 -16.5t-45.5 16.5zM171 24q0 -64 -20 -111.5t-55.5 -73t-80.5 -25.5v85h8q49 0 78 24.5t34 69.5q-13 -5 -27 -5q-28 0 -45.5 16.5t-17.5 41.5t17 41.5t42 16.5
q67 0 67 -80z" />
    <glyph glyph-name="less" unicode="&#x3c;" horiz-adv-x="565" 
d="M50 392l450 183v-84l-360 -141l360 -141v-84l-450 183v84z" />
    <glyph glyph-name="equal" unicode="=" horiz-adv-x="610" 
d="M540 422h-470v72h470v-72zM540 206h-470v72h470v-72z" />
    <glyph glyph-name="greater" unicode="&#x3e;" horiz-adv-x="565" 
d="M65 491v84l450 -183v-84l-450 -183v84l360 141z" />
    <glyph glyph-name="question" unicode="?" horiz-adv-x="770" 
d="M318 209q0 64 24.5 102t59 56.5t90.5 37.5q41 14 64.5 25t39.5 31t16 50q0 118 -224 118q-230 0 -230 -146v-21h-103v22q0 108 79 168t251 60q174 0 252 -51.5t78 -138.5q0 -57 -22 -92t-54 -53t-84 -37q-45 -17 -71.5 -31.5t-44.5 -40t-18 -65.5v-19h-103v25zM323.5 4.5
q-17.5 16.5 -17.5 41.5t17.5 41.5t45.5 16.5t45.5 -16.5t17.5 -41.5t-17.5 -41.5t-45.5 -16.5t-45.5 16.5z" />
    <glyph glyph-name="at" unicode="@" horiz-adv-x="1129" 
d="M296 -125.5q-115 56.5 -175.5 155.5t-60.5 225t60.5 225t175.5 155.5t271 56.5t271 -56.5t175.5 -155.5t60.5 -225q0 -108 -45 -161.5t-125 -53.5q-63 0 -101 28.5t-46 76.5h-11q-24 -45 -75 -75t-131 -30q-71 0 -123.5 27.5t-81 76t-28.5 111.5t28.5 111.5t81 76
t123.5 27.5q79 0 128 -31t68 -74h13l-16 95h73v-263q0 -42 24 -65.5t68 -23.5q48 0 73 34t25 113q0 107 -51 190.5t-148 131t-230 47.5t-230 -47.5t-148 -131t-51 -190.5t51 -190.5t148 -131t230 -47.5q131 0 231 48l32 -59q-43 -24 -109.5 -40.5t-153.5 -16.5
q-156 0 -271 56.5zM683 148.5q45 40.5 45 106.5t-45 106.5t-126 40.5t-126.5 -40.5t-45.5 -106.5t45.5 -106.5t126.5 -40.5t126 40.5z" />
    <glyph glyph-name="A" unicode="A" horiz-adv-x="895" 
d="M870 0h-109l-71 141h-485l-71 -141h-109l363 700h119zM247 224h401l-161 317q-33 66 -33 97v1h-13v-1q0 -31 -33 -97z" />
    <glyph glyph-name="B" unicode="B" horiz-adv-x="916" 
d="M703 354q76 -6 119.5 -50t43.5 -116q0 -188 -255 -188h-516v700h516q114 0 172 -47.5t58 -128.5q0 -64 -38 -105.5t-100 -49.5v-15zM198 612v-216h408q64 0 98 29.5t34 78.5q0 50 -34 79t-98 29h-408zM616 88q75 0 111 29.5t36 82.5q0 54 -36 83.5t-111 29.5h-418v-225
h418z" />
    <glyph glyph-name="C" unicode="C" horiz-adv-x="1008" 
d="M266 35q-101 47 -153.5 129.5t-52.5 185.5t52.5 185.5t153.5 129.5t243 47q133 0 228 -37.5t149.5 -102.5t71.5 -147h-103q-22 86 -107.5 142.5t-238.5 56.5q-109 0 -187.5 -36t-118.5 -98t-40 -140t40 -140t118.5 -98t187.5 -36q153 0 238.5 56.5t107.5 142.5h103
q-25 -130 -137 -208.5t-312 -78.5q-142 0 -243 47z" />
    <glyph glyph-name="D" unicode="D" horiz-adv-x="911" 
d="M95 0v700h335q131 0 226 -46t145 -125.5t50 -178.5t-50 -178.5t-145 -125.5t-226 -46h-335zM430 88q98 0 170 34.5t110 94t38 133.5t-38 133.5t-110 94t-170 34.5h-232v-524h232z" />
    <glyph glyph-name="E" unicode="E" horiz-adv-x="835" 
d="M765 700v-88h-567v-215h497v-83h-497v-226h567v-88h-670v700h670z" />
    <glyph glyph-name="F" unicode="F" horiz-adv-x="805" 
d="M745 700v-88h-547v-260h477v-83h-477v-269h-103v700h650z" />
    <glyph glyph-name="G" unicode="G" horiz-adv-x="1008" 
d="M434 271v78h499v-349h-93l20 180h-13q-19 -45 -61.5 -88t-117.5 -73.5t-181 -30.5q-131 0 -228 47.5t-148 129.5t-51 185t52 185.5t152.5 129.5t240.5 47q132 0 226.5 -38t149 -103t72.5 -146h-103q-26 88 -112.5 143.5t-232.5 55.5q-107 0 -184.5 -36t-117.5 -98
t-40 -140q0 -80 40 -143.5t117.5 -99.5t185.5 -36q94 0 162.5 29.5t108.5 75t55 95.5h-398z" />
    <glyph glyph-name="H" unicode="H" horiz-adv-x="966" 
d="M768 405v295h103v-700h-103v317h-570v-317h-103v700h103v-295h570z" />
    <glyph glyph-name="I" unicode="I" horiz-adv-x="731" 
d="M661 0h-591v88h244v524h-244v88h591v-88h-244v-524h244v-88z" />
    <glyph glyph-name="J" unicode="J" horiz-adv-x="813" 
d="M135.5 64q-85.5 76 -85.5 214v22h103v-19q0 -99 58.5 -152t177.5 -53t177.5 53t58.5 152v331h-475v88h578v-422q0 -138 -85.5 -214t-253.5 -76t-253.5 76z" />
    <glyph glyph-name="K" unicode="K" horiz-adv-x="829" 
d="M331 362l493 -362h-158l-468 349v-349h-103v700h103v-329l453 329h153z" />
    <glyph glyph-name="L" unicode="L" horiz-adv-x="775" 
d="M725 0h-630v700h103v-612h527v-88z" />
    <glyph glyph-name="M" unicode="M" horiz-adv-x="1119" 
d="M95 0v700h165l268 -445q25 -42 25 -59v-5h13v5q0 17 25 59l268 445h165v-700h-100v486q0 49 3.5 81t11.5 72h-13l-310 -509h-113l-310 509h-13q8 -40 11.5 -72t3.5 -81v-486h-100z" />
    <glyph glyph-name="N" unicode="N" horiz-adv-x="976" 
d="M95 0v700h162l528 -639h13q-9 40 -13 70.5t-4 74.5v494h100v-700h-162l-528 639h-13q9 -40 13 -70.5t4 -74.5v-494h-100z" />
    <glyph glyph-name="O" unicode="O" horiz-adv-x="1030" 
d="M268 35q-103 47 -155.5 129t-52.5 186t52.5 186t155.5 129t247 47t247 -47t155.5 -129t52.5 -186t-52.5 -186t-155.5 -129t-247 -47t-247 47zM706.5 112q79.5 36 120 98t40.5 140t-40.5 140t-120 98t-191.5 36t-191.5 -36t-120 -98t-40.5 -140t40.5 -140t120 -98
t191.5 -36t191.5 36z" />
    <glyph glyph-name="P" unicode="P" horiz-adv-x="871" 
d="M534 700q135 0 206 -61.5t71 -167.5t-71 -167.5t-206 -61.5h-336v-242h-103v700h439zM534 330q85 0 129.5 38t44.5 103t-44.5 103t-129.5 38h-339v-282h339z" />
    <glyph glyph-name="Q" unicode="Q" horiz-adv-x="1030" 
d="M540 -15q0 -42 23 -60.5t82 -18.5h245v-88h-215q-93 0 -144 42.5t-51 109.5v19q-133 6 -228 54t-143.5 128t-48.5 179q0 104 52.5 186t155.5 129t247 47t247 -47t155.5 -129t52.5 -186q0 -100 -49.5 -180.5t-146.5 -129t-234 -52.5v-3zM203.5 210q40.5 -62 120 -98
t191.5 -36t191.5 36t120 98t40.5 140t-40.5 140t-120 98t-191.5 36t-191.5 -36t-120 -98t-40.5 -140t40.5 -140z" />
    <glyph glyph-name="R" unicode="R" horiz-adv-x="893" 
d="M853 0h-120l-81 178q-15 33 -31.5 49.5t-42.5 23t-71 6.5h-309v-257h-103v700h451q85 0 146 -28t92.5 -76.5t31.5 -108.5q0 -81 -47.5 -136.5t-121.5 -64.5v-14q48 -3 74.5 -25t53.5 -81zM195 340h351q82 0 124.5 36.5t42.5 99.5t-42.5 99.5t-124.5 36.5h-351v-272z" />
    <glyph glyph-name="S" unicode="S" horiz-adv-x="945" 
d="M166.5 56.5q-96.5 68.5 -96.5 187.5v16h103v-14q0 -175 302 -175q171 0 236.5 33t65.5 92q0 51 -41.5 77t-103 34.5t-167.5 13.5q-126 6 -203.5 18.5t-132 52t-54.5 119.5q0 201 400 201q209 0 304.5 -67t95.5 -181v-9h-103v9q0 76 -69.5 120.5t-227.5 44.5
q-165 0 -231 -33.5t-66 -88.5q0 -45 38.5 -67.5t96 -29.5t159.5 -12q130 -5 211.5 -18t139 -55.5t57.5 -128.5q0 -97 -92 -152.5t-313 -55.5q-212 0 -308.5 68.5z" />
    <glyph glyph-name="T" unicode="T" horiz-adv-x="787" 
d="M445 0h-103v612h-317v88h737v-88h-317v-612z" />
    <glyph glyph-name="U" unicode="U" horiz-adv-x="940" 
d="M183 76.5q-98 88.5 -98 247.5v376h103v-373q0 -118 71 -182t211 -64t211 64t71 182v373h103v-376q0 -159 -98 -247.5t-287 -88.5t-287 88.5z" />
    <glyph glyph-name="V" unicode="V" horiz-adv-x="895" 
d="M385 0l-355 700h116l263 -541q18 -37 25 -58.5t7 -38.5v-1h13v1q0 17 7 38.5t25 58.5l263 541h116l-355 -700h-125z" />
    <glyph glyph-name="W" unicode="W" horiz-adv-x="1187" 
d="M281 0l-241 700h110l180 -541q19 -59 19 -95v-3h13v3q0 45 19 95l153 411h119l153 -411q19 -50 19 -95v-3h13v3q0 36 19 95l180 541h110l-241 -700h-132l-150 395q-12 32 -18 57.5t-6 54.5v2h-13v-2q0 -29 -6 -54.5t-18 -57.5l-150 -395h-132z" />
    <glyph glyph-name="X" unicode="X" horiz-adv-x="891" 
d="M25 0l347 355l-337 345h131l226 -238q24 -25 35.5 -40.5t11.5 -29.5v-5h13v5q0 14 11.5 29.5t35.5 40.5l226 238h131l-337 -345l347 -355h-134l-237 247q-22 23 -32.5 37.5t-10.5 27.5v5h-13v-5q0 -13 -10.5 -27.5t-32.5 -37.5l-237 -247h-134z" />
    <glyph glyph-name="Y" unicode="Y" horiz-adv-x="835" 
d="M366 0v234l-346 466h119l231 -320q21 -29 31 -48t10 -34v-7h13v7q0 15 10 34t31 48l231 320h119l-346 -466v-234h-103z" />
    <glyph glyph-name="Z" unicode="Z" horiz-adv-x="865" 
d="M795 0h-720v81l563 518v13h-553v88h700v-81l-563 -518v-13h573v-88z" />
    <glyph glyph-name="bracketleft" unicode="[" horiz-adv-x="470" 
d="M420 -275h-320v1060h320v-78h-232v-904h232v-78z" />
    <glyph glyph-name="backslash" unicode="\" horiz-adv-x="505" 
d="M505 -120h-100l-405 820h100z" />
    <glyph glyph-name="bracketright" unicode="]" horiz-adv-x="470" 
d="M370 -275h-320v78h232v904h-232v78h320v-1060z" />
    <glyph glyph-name="asciicircum" unicode="^" horiz-adv-x="570" 
d="M330 700l210 -340h-88l-167 275l-167 -275h-88l210 340h90z" />
    <glyph glyph-name="underscore" unicode="_" horiz-adv-x="520" 
d="M510 -132h-500v72h500v-72z" />
    <glyph glyph-name="grave" unicode="`" horiz-adv-x="272" 
d="M242 585h-77l-135 160h112z" />
    <glyph glyph-name="a" unicode="a" horiz-adv-x="772" 
d="M122 29q-57 41 -57 111q0 69 57 110t179 41q97 0 161.5 -19.5t125.5 -55.5v51q0 80 -56.5 126.5t-167.5 46.5q-101 0 -156 -35t-66 -85h-92q7 54 42.5 98.5t104 71.5t168.5 27q157 0 236 -67.5t79 -185.5v-150q0 -49 44 -49q15 0 33 5v-74q-25 -8 -51 -8q-49 0 -77 25.5
t-28 68.5v7h-13v-1q0 -24 -35 -47t-100.5 -38t-151.5 -15q-122 0 -179 41zM588 127v36q-59 29 -116.5 45t-139.5 16q-97 0 -136 -22t-39 -60t39 -60t136 -22q148 0 256 67z" />
    <glyph glyph-name="b" unicode="b" horiz-adv-x="800" 
d="M267 31q-69 43 -93 114h-13l16 -145h-92v700h92v-159q0 -45 -3.5 -83.5t-12.5 -97.5h13q24 71 93 114t180 43q92 0 159 -34t103 -94t36 -137t-36 -136.5t-103 -93.5t-159 -34q-111 0 -180 43zM544.5 89.5q53.5 24.5 81 67t27.5 95.5q0 54 -27.5 96.5t-81 67t-129.5 24.5
t-129.5 -24.5t-81 -67t-27.5 -96.5q0 -53 27.5 -95.5t81 -67t129.5 -24.5t129.5 24.5z" />
    <glyph glyph-name="c" unicode="c" horiz-adv-x="755" 
d="M203 22.5q-75 34.5 -114 94.5t-39 135t39 135t114 95t180 35q96 0 168 -29t113.5 -79t50.5 -114h-92q-12 62 -74 103.5t-166 41.5q-76 0 -130.5 -25t-82.5 -67.5t-28 -95.5q0 -52 28 -94.5t82.5 -67.5t130.5 -25q104 0 166 41.5t74 103.5h92q-9 -64 -50.5 -114
t-113.5 -79t-168 -29q-105 0 -180 34.5z" />
    <glyph glyph-name="d" unicode="d" horiz-adv-x="800" 
d="M194 22q-67 34 -103 93.5t-36 136.5t36 137t103 94t159 34q111 0 180 -43t93 -114h13q-9 59 -12.5 97.5t-3.5 83.5v159h92v-700h-92l16 145h-13q-24 -71 -93 -114t-180 -43q-92 0 -159 34zM514.5 89.5q53.5 24.5 81 67t27.5 95.5q0 54 -27.5 96.5t-81 67t-129.5 24.5
t-129.5 -24.5t-81 -67t-27.5 -96.5q0 -53 27.5 -95.5t81 -67t129.5 -24.5t129.5 24.5z" />
    <glyph glyph-name="e" unicode="e" horiz-adv-x="774" 
d="M722 216h-580q13 -70 76.5 -113t169.5 -43q97 0 151 29.5t79 70.5h92q-25 -69 -104 -120.5t-220 -51.5q-106 0 -182 34.5t-115 94.5t-39 135t39 135t115 95t183 35t183 -35t115 -95t39 -135q0 -18 -2 -36zM216.5 400.5q-63.5 -44.5 -75.5 -117.5h492q-12 73 -75.5 117.5
t-170.5 44.5t-170.5 -44.5z" />
    <glyph glyph-name="f" unicode="f" horiz-adv-x="685" 
d="M195 0v408h-170v72h190v11q-53 5 -89 31t-36 71q0 55 67 89.5t228 34.5q295 0 295 -183v-4h-92v5q0 54 -45 82t-158 28q-203 0 -203 -77q0 -30 26 -50t67 -38h310v-72h-298v-408h-92z" />
    <glyph glyph-name="g" unicode="g" horiz-adv-x="769" 
d="M107 -182q-77 43 -77 122q0 105 128 133v11h-18q-34 0 -52 15t-18 41t18 41t52 15h39v11q-50 14 -79.5 48t-29.5 86q0 84 73.5 130t247.5 46h195q22 0 33 8.5t11 22.5q0 11 -6.5 22.5t-22.5 26.5h90q28 -21 28 -51q0 -25 -18.5 -39.5t-55.5 -14.5h-53v-11
q57 -17 87 -52.5t30 -87.5q0 -166 -312 -166h-206q-20 0 -32 -10t-12 -26q0 -15 12 -25t32 -10h227q173 0 244.5 -43t71.5 -120q0 -80 -77 -123t-275 -43t-275 43zM569 264.5q51 27.5 51 76.5t-51 76.5t-179 27.5q-129 0 -180 -27.5t-51 -76.5t51 -76.5t180 -27.5
q128 0 179 27.5zM544.5 -140.5q57.5 12.5 79 33.5t21.5 51q0 31 -21 52t-79 33.5t-163 12.5t-163 -12.5t-79 -33.5t-21 -52q0 -30 21.5 -51t79 -33.5t162.5 -12.5t162.5 12.5z" />
    <glyph glyph-name="h" unicode="h" horiz-adv-x="803" 
d="M85 0v700h92v-176q0 -45 -3.5 -83.5t-12.5 -95.5h13q20 77 87 124.5t176 47.5q137 0 214 -77.5t77 -216.5v-223h-92v204q0 114 -60 175t-170 61q-109 0 -169 -61t-60 -175v-204h-92z" />
    <glyph glyph-name="i" unicode="i" horiz-adv-x="535" 
d="M332 77h178v-77h-470v77h203v283q0 40 -17 57.5t-57 17.5q-19 0 -34 -3.5t-35 -10.5v79q44 17 97 17q70 0 102.5 -31t32.5 -95v-314zM225.5 621.5q-17.5 15.5 -17.5 40.5t17.5 40.5t46.5 15.5t46.5 -15.5t17.5 -40.5t-17.5 -40.5t-46.5 -15.5t-46.5 15.5z" />
    <glyph glyph-name="j" unicode="j" horiz-adv-x="335" 
d="M-23 -212q-22 3 -47 11v77q42 -14 86 -14q81 0 118 31.5t37 94.5v372q0 40 -17 57.5t-57 17.5q-19 0 -34 -3.5t-35 -10.5v79q44 17 97 17q70 0 102.5 -31t32.5 -95v-404q0 -202 -229 -202q-32 0 -54 3zM153.5 621.5q-17.5 15.5 -17.5 40.5t17.5 40.5t46.5 15.5
t46.5 -15.5t17.5 -40.5t-17.5 -40.5t-46.5 -15.5t-46.5 15.5z" />
    <glyph glyph-name="k" unicode="k" horiz-adv-x="674" 
d="M300 262l369 -262h-142l-350 255v-255h-92v700h92v-432l342 237h140z" />
    <glyph glyph-name="l" unicode="l" horiz-adv-x="575" 
d="M351 77h199v-77h-515v77h224v478q0 41 -18 58t-63 17q-23 0 -40 -4t-40 -13v79q47 20 107 20q77 0 111.5 -30.5t34.5 -94.5v-510z" />
    <glyph glyph-name="m" unicode="m" horiz-adv-x="1107" 
d="M80 0v505h92l-14 -128h13q19 64 71 102t135 38q86 0 140 -42t69 -108h11q18 69 72 109.5t139 40.5q104 0 164 -63t60 -177v-277h-92v258q0 86 -45.5 134t-123.5 48t-123.5 -48t-45.5 -134v-258h-92v258q0 86 -45.5 134t-123.5 48t-123.5 -48t-45.5 -134v-258h-92z" />
    <glyph glyph-name="n" unicode="n" horiz-adv-x="798" 
d="M80 0v505h92l-16 -160h13q20 77 87 124.5t176 47.5q137 0 214 -77.5t77 -216.5v-223h-92v204q0 114 -60 175t-170 61q-109 0 -169 -61t-60 -175v-204h-92z" />
    <glyph glyph-name="o" unicode="o" horiz-adv-x="784" 
d="M206 22.5q-77 34.5 -116.5 94.5t-39.5 135t39.5 135.5t116.5 95t186 34.5t186 -34.5t116.5 -95t39.5 -135.5t-39.5 -135t-116.5 -94.5t-186 -34.5t-186 34.5zM528.5 90q56.5 25 85 67t28.5 95t-28.5 95.5t-85 67.5t-136.5 25t-136.5 -25t-85 -67.5t-28.5 -95.5t28.5 -95
t85 -67t136.5 -25t136.5 25z" />
    <glyph glyph-name="p" unicode="p" horiz-adv-x="795" 
d="M80 -195v700h92l-16 -145h13q24 71 93 114t180 43q92 0 159 -34t103 -94t36 -137t-36 -136.5t-103 -93.5t-159 -34q-111 0 -180 43t-93 114h-13q9 -60 12.5 -98.5t3.5 -83.5v-158h-92zM539.5 89.5q53.5 24.5 81 67t27.5 95.5q0 54 -27.5 96.5t-81 67t-129.5 24.5
t-129.5 -24.5t-81 -67t-27.5 -96.5q0 -53 27.5 -95.5t81 -67t129.5 -24.5t129.5 24.5z" />
    <glyph glyph-name="q" unicode="q" horiz-adv-x="795" 
d="M623 -37q0 45 3.5 83.5t12.5 98.5h-13q-24 -71 -93 -114t-180 -43q-92 0 -159 34t-103 93.5t-36 136.5t36 137t103 94t159 34q111 0 180 -43t93 -114h13l-16 145h92v-700h-92v158zM514.5 89.5q53.5 24.5 81 67t27.5 95.5q0 54 -27.5 96.5t-81 67t-129.5 24.5
t-129.5 -24.5t-81 -67t-27.5 -96.5q0 -53 27.5 -95.5t81 -67t129.5 -24.5t129.5 24.5z" />
    <glyph glyph-name="r" unicode="r" horiz-adv-x="711" 
d="M80 0v505h92l-14 -145h13q19 69 79.5 113t157.5 44q128 0 195.5 -65.5t67.5 -186.5v-18h-92v11q0 83 -53 131t-151 48q-97 0 -150 -53.5t-53 -156.5v-227h-92z" />
    <glyph glyph-name="s" unicode="s" horiz-adv-x="733" 
d="M128.5 36.5q-73.5 48.5 -73.5 131.5v12h92v-11q0 -49 51.5 -79t170.5 -30q125 0 173.5 23t48.5 61q0 32 -29.5 48.5t-73.5 22t-121 8.5q-98 4 -159.5 13t-104.5 39.5t-43 90.5q0 151 309 151q158 0 232 -50.5t77 -133.5h-92q-6 112 -217 112q-217 0 -217 -84
q0 -30 28 -44.5t70.5 -19t115.5 -7.5q102 -4 164.5 -13.5t107.5 -41t45 -95.5q0 -71 -70.5 -111.5t-243.5 -40.5q-167 0 -240.5 48.5z" />
    <glyph glyph-name="t" unicode="t" horiz-adv-x="685" 
d="M149.5 46q-72.5 58 -72.5 153q0 79 47 134t112 79v11h-221v72h169q28 0 38.5 10.5t10.5 38.5v81h77v-130h305v-72h-315q-64 -28 -97.5 -74t-33.5 -116q0 -80 49.5 -124t145.5 -44q199 0 199 156v10h92v-12q0 -110 -72 -170.5t-219 -60.5q-142 0 -214.5 58z" />
    <glyph glyph-name="u" unicode="u" horiz-adv-x="783" 
d="M150.5 64.5q-75.5 76.5 -75.5 211.5v229h92v-210q0 -110 58 -170t164 -60t164 60t58 170v210h92v-505h-92l16 160h-13q-20 -78 -85 -125t-171 -47q-132 0 -207.5 76.5z" />
    <glyph glyph-name="v" unicode="v" horiz-adv-x="701" 
d="M292 0l-272 505h108l195 -383q21 -40 21 -69v-3h13v3q0 29 21 69l195 383h108l-272 -505h-117z" />
    <glyph glyph-name="w" unicode="w" horiz-adv-x="1011" 
d="M224 0l-199 505h99l143 -376q15 -39 15 -74v-5h13v5q0 22 2 39.5t9 34.5l152 376h95l152 -376q7 -17 9 -34.5t2 -39.5v-5h13v5q0 35 15 74l143 376h99l-199 -505h-114l-147 359q-14 33 -14 92v4h-13v-4q0 -59 -14 -92l-147 -359h-114z" />
    <glyph glyph-name="x" unicode="x" horiz-adv-x="707" 
d="M15 0l273 257l-263 248h121l163 -158q38 -36 38 -60v-2h13v2q0 21 39 60l162 158h121l-264 -248l274 -257h-123l-174 169q-35 33 -35 51v4h-13v-4q0 -19 -34 -51l-175 -169h-123z" />
    <glyph glyph-name="y" unicode="y" horiz-adv-x="701" 
d="M573 505h108l-296 -540q-54 -99 -108 -139.5t-134 -40.5q-44 0 -83 14v77q36 -14 73 -14q55 0 89 23.5t67 81.5l13 22l-282 516h108l193 -373q22 -43 22 -72v-1h13v1q0 31 21 72z" />
    <glyph glyph-name="z" unicode="z" horiz-adv-x="701" 
d="M646 0h-586v70l432 345v13h-422v77h566v-70l-432 -345v-13h442v-77z" />
    <glyph glyph-name="braceleft" unicode="{" horiz-adv-x="515" 
d="M331 -275q-84 0 -130 46t-46 131v229q0 91 -105 91v66q105 0 105 91v229q0 85 46 131t130 46h134v-78h-112q-110 0 -110 -110v-226q0 -47 -27 -76t-70 -33v-13q44 -4 70.5 -33.5t26.5 -76.5v-226q0 -110 110 -110h112v-78h-134z" />
    <glyph glyph-name="bar" unicode="|" horiz-adv-x="310" 
d="M205 -210h-100v950h100v-950z" />
    <glyph glyph-name="braceright" unicode="}" horiz-adv-x="515" 
d="M50 -275v78h112q110 0 110 110v226q0 47 26.5 76.5t70.5 33.5v13q-43 4 -70 33t-27 76v226q0 110 -110 110h-112v78h134q84 0 130 -46t46 -131v-229q0 -91 105 -91v-66q-105 0 -105 -91v-229q0 -85 -46 -131t-130 -46h-134z" />
    <glyph glyph-name="asciitilde" unicode="~" horiz-adv-x="610" 
d="M352.5 269q-34.5 20 -75.5 57q-30 27 -49.5 39.5t-41.5 12.5q-23 0 -36 -14.5t-13 -41.5q0 -31 15 -63h-77q-20 38 -20 80q0 52 31.5 81.5t88.5 29.5q48 0 82.5 -20t75.5 -57q30 -27 49.5 -39.5t41.5 -12.5q23 0 36 14.5t13 41.5q0 31 -15 63h77q20 -38 20 -80
q0 -52 -31.5 -81.5t-88.5 -29.5q-48 0 -82.5 20z" />
    <glyph glyph-name="uni00A0" unicode="&#xa0;" horiz-adv-x="280" 
 />
    <glyph glyph-name="exclamdown" unicode="&#xa1;" horiz-adv-x="246" 
d="M77.5 417.5q-17.5 16.5 -17.5 41.5t17.5 41.5t45.5 16.5t45.5 -16.5t17.5 -41.5t-17.5 -41.5t-45.5 -16.5t-45.5 16.5zM173 -195h-100v351l22 165h56l22 -165v-351z" />
    <glyph glyph-name="cent" unicode="&#xa2;" horiz-adv-x="755" 
d="M549 204.5q62 41.5 74 103.5h92q-12 -88 -86.5 -148.5t-196.5 -71.5v-106h-98v106q-90 8 -154 44.5t-97 93t-33 124.5q0 69 33 125.5t97 93t154 44.5v105h98v-105q122 -11 196.5 -71.5t86.5 -148.5h-92q-12 62 -74 103.5t-166 41.5q-76 0 -130.5 -25t-82.5 -67.5
t-28 -95.5q0 -52 28 -94.5t82.5 -67.5t130.5 -25q104 0 166 41.5z" />
    <glyph glyph-name="sterling" unicode="&#xa3;" horiz-adv-x="827" 
d="M767 485h-103v11q0 31 -24 60.5t-72.5 48.5t-116.5 19q-105 0 -159 -46t-54 -125v-73h354v-78h-354v-111q0 -81 -51 -103h580v-88h-717v88q44 0 64.5 21t20.5 67v126h-75v78h75v72q0 122 79.5 191t236.5 69q103 0 174 -29.5t106.5 -78.5t35.5 -108v-11z" />
    <glyph glyph-name="currency" unicode="&#xa4;" horiz-adv-x="722" 
d="M577 251l105 -105l-60 -49l-102 102q-61 -36 -159 -36t-159 36l-102 -102l-60 49l105 105q-29 43 -29 99t29 99l-105 105l60 49l102 -102q61 36 159 36t159 -36l102 102l60 -49l-105 -105q29 -43 29 -99t-29 -99zM485 261q43 35 43 89t-43 89t-124 35t-124 -35t-43 -89
t43 -89t124 -35t124 35z" />
    <glyph glyph-name="yen" unicode="&#xa5;" horiz-adv-x="835" 
d="M815 700l-310 -382h164v-70h-200v-85h200v-70h-200v-93h-103v93h-200v70h200v85h-200v70h164l-310 382h119l231 -300q21 -28 31 -47.5t10 -34.5h13q0 15 10 34.5t31 47.5l231 300h119z" />
    <glyph glyph-name="brokenbar" unicode="&#xa6;" horiz-adv-x="310" 
d="M205 330h-100v410h100v-410zM205 -210h-100v410h100v-410z" />
    <glyph glyph-name="section" unicode="&#xa7;" horiz-adv-x="776" 
d="M169.5 -139.5q-69.5 52.5 -69.5 150.5v19h93v-17q0 -66 45.5 -99t154.5 -33q110 0 155 26t45 71t-46.5 71t-162.5 26q-174 0 -246.5 47t-72.5 133q0 71 45.5 111t120.5 48v13q-64 10 -100 42t-36 87q0 156 293 156q154 0 223.5 -52.5t69.5 -150.5v-19h-93v17
q0 66 -45.5 99t-154.5 33q-110 0 -155 -26t-45 -71t46.5 -71t162.5 -26q174 0 246.5 -47t72.5 -133q0 -71 -45.5 -111t-120.5 -48v-13q64 -10 100 -42t36 -87q0 -156 -293 -156q-154 0 -223.5 52.5zM572.5 174q50.5 29 50.5 86t-50.5 86t-182.5 29q-131 0 -181.5 -29
t-50.5 -86t50.5 -86t182.5 -29q131 0 181.5 29z" />
    <glyph glyph-name="dieresis" unicode="&#xa8;" horiz-adv-x="414" 
d="M45 627.5q-15 13.5 -15 34.5t15 34.5t41 13.5t41 -13.5t15 -34.5t-15 -34.5t-41 -13.5t-41 13.5zM287 627.5q-15 13.5 -15 34.5t15 34.5t41 13.5t41 -13.5t15 -34.5t-15 -34.5t-41 -13.5t-41 13.5z" />
    <glyph glyph-name="copyright" unicode="&#xa9;" horiz-adv-x="954" 
d="M256 35.5q-95 47.5 -145.5 130t-50.5 184.5t50.5 184.5t145.5 130t221 47.5t221 -47.5t145.5 -130t50.5 -184.5t-50.5 -184.5t-145.5 -130t-221 -47.5t-221 47.5zM662 90.5q79 39.5 121.5 107.5t42.5 152t-42.5 152t-121.5 107.5t-185 39.5t-185 -39.5t-121.5 -107.5
t-42.5 -152t42.5 -152t121.5 -107.5t185 -39.5t185 39.5zM328.5 230q-53.5 46 -53.5 120t53.5 120t151.5 46q62 0 105.5 -19t66.5 -49t28 -63h-73q-8 26 -39.5 47t-87.5 21q-61 0 -96.5 -29.5t-35.5 -73.5t35.5 -73.5t96.5 -29.5q56 0 87.5 21t39.5 47h73q-5 -33 -28 -63
t-66.5 -49t-105.5 -19q-98 0 -151.5 46z" />
    <glyph glyph-name="ordfeminine" unicode="&#xaa;" horiz-adv-x="565" 
d="M45 430q0 114 178 114q71 0 114 -12.5t81 -33.5v41q0 48 -40 79.5t-115 31.5q-69 0 -106.5 -24.5t-44.5 -56.5h-77q7 61 63.5 102t164.5 41q112 0 169.5 -47.5t57.5 -127.5v-130q0 -18 8 -26t25 -8q15 0 27 5v-56q-22 -6 -45 -6q-38 0 -57.5 18t-19.5 51h-9v-1
q0 -30 -56.5 -49t-138.5 -19q-179 0 -179 114zM418 410v48q-91 29 -174 29q-69 0 -95.5 -14.5t-26.5 -41.5q0 -28 26.5 -43t95.5 -15q96 0 174 37z" />
    <glyph glyph-name="guillemotleft" unicode="&#xab;" horiz-adv-x="571" 
d="M303 63h-90l-183 190l183 190h90l-185 -190zM531 63h-90l-183 190l183 190h90l-185 -190z" />
    <glyph glyph-name="logicalnot" unicode="&#xac;" horiz-adv-x="625" 
d="M550 238h-82v107h-403v77h485v-184z" />
    <glyph glyph-name="uni00AD" unicode="&#xad;" horiz-adv-x="530" 
d="M470 273l-410 -94v74l410 94v-74z" />
    <glyph glyph-name="registered" unicode="&#xae;" horiz-adv-x="586" 
d="M423 684.5q55 -27.5 84 -75.5t29 -109t-29 -109t-84 -75.5t-130 -27.5t-130 27.5t-84 75.5t-29 109t29 109t84 75.5t130 27.5t130 -27.5zM437.5 376.5q51.5 46.5 51.5 123.5t-51.5 123.5t-144.5 46.5t-144.5 -46.5t-51.5 -123.5t51.5 -123.5t144.5 -46.5t144.5 46.5z
M389.5 496q-10.5 -16 -29.5 -24l45 -70h-52l-39 62h-70v-62h-47v198h118q41 0 63 -19t22 -49q0 -20 -10.5 -36zM241 558v-57h74q19 0 28.5 8t9.5 21t-9.5 20.5t-28.5 7.5h-74z" />
    <glyph glyph-name="macron" unicode="&#xaf;" horiz-adv-x="454" 
d="M424 641h-394v67h394v-67z" />
    <glyph glyph-name="degree" unicode="&#xb0;" horiz-adv-x="470" 
d="M134.5 388q-43.5 22 -66.5 61.5t-23 89.5t23 89.5t66.5 61.5t100.5 22t100.5 -22t66.5 -61.5t23 -89.5t-23 -89.5t-66.5 -61.5t-100.5 -22t-100.5 22zM324 459.5q34 31.5 34 79.5t-34 79.5t-89 31.5t-89 -31.5t-34 -79.5t34 -79.5t89 -31.5t89 31.5z" />
    <glyph glyph-name="plusminus" unicode="&#xb1;" horiz-adv-x="610" 
d="M540 411v-72h-197v-172h197v-72h-470v72h196v172h-196v72h196v174h77v-174h197z" />
    <glyph glyph-name="uni00B2" unicode="&#xb2;" horiz-adv-x="485" 
d="M122 481h323v-57h-395v59q0 53 28.5 82t68.5 40t102 18q46 6 71 11.5t41.5 17.5t16.5 35q0 29 -30.5 46.5t-100.5 17.5q-71 0 -100.5 -19t-29.5 -55v-9h-72v11q0 61 47.5 95t154.5 34q106 0 154.5 -31.5t48.5 -82.5q0 -43 -25 -67t-60.5 -34.5t-94.5 -19.5
q-50 -8 -79 -16t-49 -24.5t-20 -45.5v-6z" />
    <glyph glyph-name="uni00B3" unicode="&#xb3;" horiz-adv-x="468" 
d="M260 648q183 -4 183 -118q0 -53 -48.5 -85.5t-155.5 -32.5t-155.5 33.5t-48.5 90.5v10h72v-9q0 -29 31.5 -48.5t100.5 -19.5q73 0 102.5 17t29.5 47q0 29 -29.5 46t-101.5 17h-79v52l187 101v9q-33 -10 -59.5 -14.5t-64.5 -4.5h-174v57h373v-62z" />
    <glyph glyph-name="acute" unicode="&#xb4;" horiz-adv-x="272" 
d="M107 585h-77l100 160h112z" />
    <glyph glyph-name="uni00B5" unicode="&#xb5;" horiz-adv-x="783" 
d="M611 505h92v-505h-92l16 160h-13q-20 -77 -83.5 -124.5t-163.5 -47.5q-69 0 -120 23.5t-80 61.5v-268h-92v700h92v-210q0 -110 58 -170t164 -60t164 60t58 170v210z" />
    <glyph glyph-name="paragraph" unicode="&#xb6;" horiz-adv-x="715" 
d="M255 320q-101 0 -155.5 51t-54.5 139t54 139t153 51h423v-70h-105v-840h-80v840h-155v-840h-80v530z" />
    <glyph glyph-name="periodcentered" unicode="&#xb7;" horiz-adv-x="280" 
d="M94.5 229.5q-17.5 16.5 -17.5 41.5t17.5 41.5t45.5 16.5t45.5 -16.5t17.5 -41.5t-17.5 -41.5t-45.5 -16.5t-45.5 16.5z" />
    <glyph glyph-name="cedilla" unicode="&#xb8;" horiz-adv-x="365" 
d="M162 -55q173 0 173 -90q0 -41 -38.5 -65.5t-125.5 -24.5q-84 0 -141 27v67q61 -27 141 -27q50 0 68.5 8t18.5 22q0 15 -20 23t-76 8h-77v50l48 68h64l-47 -66h12z" />
    <glyph glyph-name="uni00B9" unicode="&#xb9;" horiz-adv-x="415" 
d="M266 481h139v-57h-360v57h154v112q0 33 5 57.5t18 65.5h-9q-15 -44 -48.5 -69t-94.5 -25v57h18q59 0 87.5 28t28.5 78v11h62v-315z" />
    <glyph glyph-name="ordmasculine" unicode="&#xba;" horiz-adv-x="552" 
d="M142.5 341.5q-55.5 25.5 -84 70.5t-28.5 102t28.5 102t84 70.5t133.5 25.5t133.5 -25.5t84 -70.5t28.5 -102t-28.5 -102t-84 -70.5t-133.5 -25.5t-133.5 25.5zM400.5 416q44.5 38 44.5 98t-44.5 98t-124.5 38t-124.5 -38t-44.5 -98t44.5 -98t124.5 -38t124.5 38z" />
    <glyph glyph-name="guillemotright" unicode="&#xbb;" horiz-adv-x="571" 
d="M130 63h-90l185 190l-185 190h90l183 -190zM358 63h-90l185 190l-185 190h90l183 -190z" />
    <glyph glyph-name="onequarter" unicode="&#xbc;" horiz-adv-x="1085" 
d="M266 385h139v-57h-360v57h154v112q0 33 5 57.5t18 65.5h-9q-15 -44 -48.5 -69t-94.5 -25v57h18q59 0 87.5 28t28.5 78v11h62v-315zM380 0h-90l520 700h90zM990 129h75v-57h-75v-72h-72v72h-263v57l238 243h97v-243zM745 138v-9h178v115q0 29 4 49.5t14 50.5h-9
q-13 -23 -23 -37.5t-26 -30.5z" />
    <glyph glyph-name="onehalf" unicode="&#xbd;" horiz-adv-x="1170" 
d="M266 385h139v-57h-360v57h154v112q0 33 5 57.5t18 65.5h-9q-15 -44 -48.5 -69t-94.5 -25v57h18q59 0 87.5 28t28.5 78v11h62v-315zM380 0h-90l520 700h90zM807 57h323v-57h-395v59q0 53 28.5 82t68.5 40t102 18q46 6 71 11.5t41.5 17.5t16.5 35q0 29 -30.5 46.5
t-100.5 17.5q-71 0 -100.5 -19t-29.5 -55v-9h-72v11q0 61 47.5 95t154.5 34q106 0 154.5 -31.5t48.5 -82.5q0 -43 -25 -67t-60.5 -34.5t-94.5 -19.5q-50 -8 -79 -16t-49 -24.5t-20 -45.5v-6z" />
    <glyph glyph-name="threequarters" unicode="&#xbe;" horiz-adv-x="1078" 
d="M260 552q183 -4 183 -118q0 -53 -48.5 -85.5t-155.5 -32.5t-155.5 33.5t-48.5 90.5v10h72v-9q0 -29 31.5 -48.5t100.5 -19.5q73 0 102.5 17t29.5 47q0 29 -29.5 46t-101.5 17h-79v52l187 101v9q-33 -10 -59.5 -14.5t-64.5 -4.5h-174v57h373v-62zM373 0h-90l520 700h90z
M983 129h75v-57h-75v-72h-72v72h-263v57l238 243h97v-243zM738 138v-9h178v115q0 29 4 49.5t14 50.5h-9q-13 -23 -23 -37.5t-26 -30.5z" />
    <glyph glyph-name="questiondown" unicode="&#xbf;" horiz-adv-x="745" 
d="M340.5 417.5q-17.5 16.5 -17.5 41.5t17.5 41.5t45.5 16.5t45.5 -16.5t17.5 -41.5t-17.5 -41.5t-45.5 -16.5t-45.5 16.5zM118 -155.5q-78 51.5 -78 138.5q0 57 22 92t54 53t84 37q45 17 71.5 31.5t44.5 40t18 65.5v19h103v-25q0 -64 -24.5 -102t-59 -56.5t-90.5 -37.5
q-41 -14 -64.5 -25t-39.5 -31t-16 -50q0 -118 224 -118q230 0 230 146v21h103v-22q0 -108 -79 -168t-251 -60q-174 0 -252 51.5z" />
    <glyph glyph-name="Agrave" unicode="&#xc0;" horiz-adv-x="895" 
d="M870 0h-109l-71 141h-485l-71 -141h-109l363 700h119zM247 224h401l-161 317q-33 66 -33 97v1h-13v-1q0 -31 -33 -97zM523 775h-87l-163 170h130z" />
    <glyph glyph-name="Aacute" unicode="&#xc1;" horiz-adv-x="895" 
d="M870 0h-109l-71 141h-485l-71 -141h-109l363 700h119zM247 224h401l-161 317q-33 66 -33 97v1h-13v-1q0 -31 -33 -97zM460 775h-87l120 170h130z" />
    <glyph glyph-name="Acircumflex" unicode="&#xc2;" horiz-adv-x="895" 
d="M870 0h-109l-71 141h-485l-71 -141h-109l363 700h119zM247 224h401l-161 317q-33 66 -33 97v1h-13v-1q0 -31 -33 -97zM493 945l200 -170h-113l-132 119l-133 -119h-113l200 170h91z" />
    <glyph glyph-name="Atilde" unicode="&#xc3;" horiz-adv-x="895" 
d="M870 0h-109l-71 141h-485l-71 -141h-109l363 700h119zM247 224h401l-161 317q-33 66 -33 97v1h-13v-1q0 -31 -33 -97zM252 775q-30 45 -30 90q0 43 28 69t77 26q43 0 74.5 -18t71.5 -53q28 -24 46.5 -35.5t37.5 -11.5q18 0 28.5 11t10.5 32q0 36 -27 75h74q30 -45 30 -90
q0 -43 -28 -69t-77 -26q-43 0 -74.5 18t-71.5 53q-28 24 -46.5 35.5t-37.5 11.5q-18 0 -28.5 -11t-10.5 -32q0 -36 27 -75h-74z" />
    <glyph glyph-name="Adieresis" unicode="&#xc4;" horiz-adv-x="895" 
d="M870 0h-109l-71 141h-485l-71 -141h-109l363 700h119zM247 224h401l-161 317q-33 66 -33 97v1h-13v-1q0 -31 -33 -97zM257 809.5q-18 15.5 -18 40.5q0 24 18 39.5t49 15.5t49 -15.5t18 -39.5q0 -25 -18 -40.5t-49 -15.5t-49 15.5zM541 809.5q-18 15.5 -18 40.5
q0 24 18 39.5t49 15.5t49 -15.5t18 -39.5q0 -25 -18 -40.5t-49 -15.5t-49 15.5z" />
    <glyph glyph-name="Aring" unicode="&#xc5;" horiz-adv-x="895" 
d="M870 0h-109l-71 141h-485l-71 -141h-109l363 700h119zM247 224h401l-161 317q-33 66 -33 97v1h-13v-1q0 -31 -33 -97zM329 784.5q-42 34.5 -42 87.5q0 54 42 88.5t119 34.5t118.5 -34.5t41.5 -88.5q0 -53 -41.5 -87.5t-118.5 -34.5t-119 34.5zM514.5 830.5
q21.5 15.5 21.5 41.5t-21.5 42t-66.5 16q-46 0 -67.5 -16t-21.5 -42t21.5 -41.5t67.5 -15.5q45 0 66.5 15.5z" />
    <glyph glyph-name="AE" unicode="&#xc6;" horiz-adv-x="1369" 
d="M1299 700v-88h-537v-215h467v-83h-467v-226h537v-88h-637v146h-414l-130 -146h-123l626 700h678zM322 229h340v383h-13q-29 -48 -63 -86z" />
    <glyph glyph-name="Ccedilla" unicode="&#xc7;" horiz-adv-x="1008" 
d="M747.5 132.5q85.5 56.5 107.5 142.5h103q-24 -125 -128.5 -203t-291.5 -84l-31 -43h12q173 0 173 -90q0 -41 -38.5 -65.5t-125.5 -24.5q-84 0 -141 27v67q62 -27 141 -27q50 0 68.5 8t18.5 22q0 15 -20 23t-76 8h-77v50l32 46q-131 6 -224.5 54t-141.5 128t-48 179
q0 103 52.5 185.5t153.5 129.5t243 47q133 0 228 -37.5t149.5 -102.5t71.5 -147h-103q-22 86 -107.5 142.5t-238.5 56.5q-109 0 -187.5 -36t-118.5 -98t-40 -140t40 -140t118.5 -98t187.5 -36q153 0 238.5 56.5z" />
    <glyph glyph-name="Egrave" unicode="&#xc8;" horiz-adv-x="835" 
d="M765 700v-88h-567v-215h497v-83h-497v-226h567v-88h-670v700h670zM505 775h-87l-163 170h130z" />
    <glyph glyph-name="Eacute" unicode="&#xc9;" horiz-adv-x="835" 
d="M765 700v-88h-567v-215h497v-83h-497v-226h567v-88h-670v700h670zM442 775h-87l120 170h130z" />
    <glyph glyph-name="Ecircumflex" unicode="&#xca;" horiz-adv-x="835" 
d="M765 700v-88h-567v-215h497v-83h-497v-226h567v-88h-670v700h670zM475 945l200 -170h-113l-132 119l-133 -119h-113l200 170h91z" />
    <glyph glyph-name="Edieresis" unicode="&#xcb;" horiz-adv-x="835" 
d="M765 700v-88h-567v-215h497v-83h-497v-226h567v-88h-670v700h670zM239 809.5q-18 15.5 -18 40.5q0 24 18 39.5t49 15.5t49 -15.5t18 -39.5q0 -25 -18 -40.5t-49 -15.5t-49 15.5zM523 809.5q-18 15.5 -18 40.5q0 24 18 39.5t49 15.5t49 -15.5t18 -39.5q0 -25 -18 -40.5
t-49 -15.5t-49 15.5z" />
    <glyph glyph-name="Igrave" unicode="&#xcc;" horiz-adv-x="731" 
d="M661 0h-591v88h244v524h-244v88h591v-88h-244v-524h244v-88zM441 775h-87l-163 170h130z" />
    <glyph glyph-name="Iacute" unicode="&#xcd;" horiz-adv-x="731" 
d="M661 0h-591v88h244v524h-244v88h591v-88h-244v-524h244v-88zM378 775h-87l120 170h130z" />
    <glyph glyph-name="Icircumflex" unicode="&#xce;" horiz-adv-x="731" 
d="M661 0h-591v88h244v524h-244v88h591v-88h-244v-524h244v-88zM411 945l200 -170h-113l-132 119l-133 -119h-113l200 170h91z" />
    <glyph glyph-name="Idieresis" unicode="&#xcf;" horiz-adv-x="731" 
d="M661 0h-591v88h244v524h-244v88h591v-88h-244v-524h244v-88zM175 809.5q-18 15.5 -18 40.5q0 24 18 39.5t49 15.5t49 -15.5t18 -39.5q0 -25 -18 -40.5t-49 -15.5t-49 15.5zM459 809.5q-18 15.5 -18 40.5q0 24 18 39.5t49 15.5t49 -15.5t18 -39.5q0 -25 -18 -40.5
t-49 -15.5t-49 15.5z" />
    <glyph glyph-name="Eth" unicode="&#xd0;" horiz-adv-x="941" 
d="M460 700q131 0 226 -46t145 -125.5t50 -178.5t-50 -178.5t-145 -125.5t-226 -46h-335v313h-125v73h125v314h335zM460 88q98 0 170 34.5t110 94t38 133.5t-38 133.5t-110 94t-170 34.5h-232v-226h225v-73h-225v-225h232z" />
    <glyph glyph-name="Ntilde" unicode="&#xd1;" horiz-adv-x="976" 
d="M95 0v700h162l528 -639h13q-9 40 -13 70.5t-4 74.5v494h100v-700h-162l-528 639h-13q9 -40 13 -70.5t4 -74.5v-494h-100zM304 775q-30 45 -30 90q0 43 28 69t77 26q43 0 74.5 -18t71.5 -53q28 -24 46.5 -35.5t37.5 -11.5q18 0 28.5 11t10.5 32q0 36 -27 75h74
q30 -45 30 -90q0 -43 -28 -69t-77 -26q-43 0 -74.5 18t-71.5 53q-28 24 -46.5 35.5t-37.5 11.5q-18 0 -28.5 -11t-10.5 -32q0 -36 27 -75h-74z" />
    <glyph glyph-name="Ograve" unicode="&#xd2;" horiz-adv-x="1030" 
d="M268 35q-103 47 -155.5 129t-52.5 186t52.5 186t155.5 129t247 47t247 -47t155.5 -129t52.5 -186t-52.5 -186t-155.5 -129t-247 -47t-247 47zM706.5 112q79.5 36 120 98t40.5 140t-40.5 140t-120 98t-191.5 36t-191.5 -36t-120 -98t-40.5 -140t40.5 -140t120 -98
t191.5 -36t191.5 36zM590 775h-87l-163 170h130z" />
    <glyph glyph-name="Oacute" unicode="&#xd3;" horiz-adv-x="1030" 
d="M268 35q-103 47 -155.5 129t-52.5 186t52.5 186t155.5 129t247 47t247 -47t155.5 -129t52.5 -186t-52.5 -186t-155.5 -129t-247 -47t-247 47zM706.5 112q79.5 36 120 98t40.5 140t-40.5 140t-120 98t-191.5 36t-191.5 -36t-120 -98t-40.5 -140t40.5 -140t120 -98
t191.5 -36t191.5 36zM527 775h-87l120 170h130z" />
    <glyph glyph-name="Ocircumflex" unicode="&#xd4;" horiz-adv-x="1030" 
d="M268 35q-103 47 -155.5 129t-52.5 186t52.5 186t155.5 129t247 47t247 -47t155.5 -129t52.5 -186t-52.5 -186t-155.5 -129t-247 -47t-247 47zM706.5 112q79.5 36 120 98t40.5 140t-40.5 140t-120 98t-191.5 36t-191.5 -36t-120 -98t-40.5 -140t40.5 -140t120 -98
t191.5 -36t191.5 36zM560 945l200 -170h-113l-132 119l-133 -119h-113l200 170h91z" />
    <glyph glyph-name="Otilde" unicode="&#xd5;" horiz-adv-x="1030" 
d="M268 35q-103 47 -155.5 129t-52.5 186t52.5 186t155.5 129t247 47t247 -47t155.5 -129t52.5 -186t-52.5 -186t-155.5 -129t-247 -47t-247 47zM706.5 112q79.5 36 120 98t40.5 140t-40.5 140t-120 98t-191.5 36t-191.5 -36t-120 -98t-40.5 -140t40.5 -140t120 -98
t191.5 -36t191.5 36zM319 775q-30 45 -30 90q0 43 28 69t77 26q43 0 74.5 -18t71.5 -53q28 -24 46.5 -35.5t37.5 -11.5q18 0 28.5 11t10.5 32q0 36 -27 75h74q30 -45 30 -90q0 -43 -28 -69t-77 -26q-43 0 -74.5 18t-71.5 53q-28 24 -46.5 35.5t-37.5 11.5q-18 0 -28.5 -11
t-10.5 -32q0 -36 27 -75h-74z" />
    <glyph glyph-name="Odieresis" unicode="&#xd6;" horiz-adv-x="1030" 
d="M268 35q-103 47 -155.5 129t-52.5 186t52.5 186t155.5 129t247 47t247 -47t155.5 -129t52.5 -186t-52.5 -186t-155.5 -129t-247 -47t-247 47zM706.5 112q79.5 36 120 98t40.5 140t-40.5 140t-120 98t-191.5 36t-191.5 -36t-120 -98t-40.5 -140t40.5 -140t120 -98
t191.5 -36t191.5 36zM324 809.5q-18 15.5 -18 40.5q0 24 18 39.5t49 15.5t49 -15.5t18 -39.5q0 -25 -18 -40.5t-49 -15.5t-49 15.5zM608 809.5q-18 15.5 -18 40.5q0 24 18 39.5t49 15.5t49 -15.5t18 -39.5q0 -25 -18 -40.5t-49 -15.5t-49 15.5z" />
    <glyph glyph-name="multiply" unicode="&#xd7;" horiz-adv-x="541" 
d="M426 561l55 -55l-155 -155l155 -156l-55 -55l-155 156l-156 -156l-55 55l156 156l-156 155l55 55l156 -155z" />
    <glyph glyph-name="Oslash" unicode="&#xd8;" horiz-adv-x="1030" 
d="M970 655l-90 -72q90 -94 90 -233q0 -104 -52.5 -186t-155.5 -129t-247 -47q-182 0 -302 77l-96 -77l-57 57l90 72q-90 95 -90 233q0 104 52.5 186t155.5 129t247 47q182 0 302 -77l96 77zM321 591q-80 -36 -120.5 -99t-40.5 -142q0 -105 68 -176l515 399q-91 54 -228 54
q-114 0 -194 -36zM709 109q80 36 120.5 99t40.5 142q0 105 -68 176l-515 -399q91 -54 228 -54q114 0 194 36z" />
    <glyph glyph-name="Ugrave" unicode="&#xd9;" horiz-adv-x="940" 
d="M183 76.5q-98 88.5 -98 247.5v376h103v-373q0 -118 71 -182t211 -64t211 64t71 182v373h103v-376q0 -159 -98 -247.5t-287 -88.5t-287 88.5zM545 775h-87l-163 170h130z" />
    <glyph glyph-name="Uacute" unicode="&#xda;" horiz-adv-x="940" 
d="M183 76.5q-98 88.5 -98 247.5v376h103v-373q0 -118 71 -182t211 -64t211 64t71 182v373h103v-376q0 -159 -98 -247.5t-287 -88.5t-287 88.5zM482 775h-87l120 170h130z" />
    <glyph glyph-name="Ucircumflex" unicode="&#xdb;" horiz-adv-x="940" 
d="M183 76.5q-98 88.5 -98 247.5v376h103v-373q0 -118 71 -182t211 -64t211 64t71 182v373h103v-376q0 -159 -98 -247.5t-287 -88.5t-287 88.5zM515 945l200 -170h-113l-132 119l-133 -119h-113l200 170h91z" />
    <glyph glyph-name="Udieresis" unicode="&#xdc;" horiz-adv-x="940" 
d="M183 76.5q-98 88.5 -98 247.5v376h103v-373q0 -118 71 -182t211 -64t211 64t71 182v373h103v-376q0 -159 -98 -247.5t-287 -88.5t-287 88.5zM279 809.5q-18 15.5 -18 40.5q0 24 18 39.5t49 15.5t49 -15.5t18 -39.5q0 -25 -18 -40.5t-49 -15.5t-49 15.5zM563 809.5
q-18 15.5 -18 40.5q0 24 18 39.5t49 15.5t49 -15.5t18 -39.5q0 -25 -18 -40.5t-49 -15.5t-49 15.5z" />
    <glyph glyph-name="Yacute" unicode="&#xdd;" horiz-adv-x="835" 
d="M366 0v234l-346 466h119l231 -320q21 -29 31 -48t10 -34v-7h13v7q0 15 10 34t31 48l231 320h119l-346 -466v-234h-103zM430 775h-87l120 170h130z" />
    <glyph glyph-name="Thorn" unicode="&#xde;" horiz-adv-x="886" 
d="M554 579q135 0 206 -61t71 -163t-71 -163t-206 -61h-356v-131h-103v700h103v-121h356zM554 219q85 0 129.5 37t44.5 99t-44.5 99t-129.5 37h-359v-272h359z" />
    <glyph glyph-name="germandbls" unicode="&#xdf;" horiz-adv-x="802" 
d="M558 361q100 -2 154.5 -48t54.5 -124q0 -87 -67.5 -138t-206.5 -51h-226v77h222q186 0 186 123q0 122 -186 122h-192v72h129q219 0 219 120q0 57 -52 89t-177 32q-126 0 -185 -47t-59 -132v-456h-92v456q0 121 82.5 188.5t253.5 67.5q169 0 245 -49.5t76 -132.5
q0 -67 -48.5 -109.5t-130.5 -46.5v-13z" />
    <glyph glyph-name="agrave" unicode="&#xe0;" horiz-adv-x="772" 
d="M122 29q-57 41 -57 111q0 69 57 110t179 41q97 0 161.5 -19.5t125.5 -55.5v51q0 80 -56.5 126.5t-167.5 46.5q-101 0 -156 -35t-66 -85h-92q7 54 42.5 98.5t104 71.5t168.5 27q157 0 236 -67.5t79 -185.5v-150q0 -49 44 -49q15 0 33 5v-74q-25 -8 -51 -8q-49 0 -77 25.5
t-28 68.5v7h-13v-1q0 -24 -35 -47t-100.5 -38t-151.5 -15q-122 0 -179 41zM588 127v36q-59 29 -116.5 45t-139.5 16q-97 0 -136 -22t-39 -60t39 -60t136 -22q148 0 256 67zM443 585h-77l-135 160h112z" />
    <glyph glyph-name="aacute" unicode="&#xe1;" horiz-adv-x="772" 
d="M122 29q-57 41 -57 111q0 69 57 110t179 41q97 0 161.5 -19.5t125.5 -55.5v51q0 80 -56.5 126.5t-167.5 46.5q-101 0 -156 -35t-66 -85h-92q7 54 42.5 98.5t104 71.5t168.5 27q157 0 236 -67.5t79 -185.5v-150q0 -49 44 -49q15 0 33 5v-74q-25 -8 -51 -8q-49 0 -77 25.5
t-28 68.5v7h-13v-1q0 -24 -35 -47t-100.5 -38t-151.5 -15q-122 0 -179 41zM588 127v36q-59 29 -116.5 45t-139.5 16q-97 0 -136 -22t-39 -60t39 -60t136 -22q148 0 256 67zM388 585h-77l100 160h112z" />
    <glyph glyph-name="acircumflex" unicode="&#xe2;" horiz-adv-x="772" 
d="M122 29q-57 41 -57 111q0 69 57 110t179 41q97 0 161.5 -19.5t125.5 -55.5v51q0 80 -56.5 126.5t-167.5 46.5q-101 0 -156 -35t-66 -85h-92q7 54 42.5 98.5t104 71.5t168.5 27q157 0 236 -67.5t79 -185.5v-150q0 -49 44 -49q15 0 33 5v-74q-25 -8 -51 -8q-49 0 -77 25.5
t-28 68.5v7h-13v-1q0 -24 -35 -47t-100.5 -38t-151.5 -15q-122 0 -179 41zM588 127v36q-59 29 -116.5 45t-139.5 16q-97 0 -136 -22t-39 -60t39 -60t136 -22q148 0 256 67zM414 745l178 -160h-100l-115 108l-116 -108h-100l178 160h75z" />
    <glyph glyph-name="atilde" unicode="&#xe3;" horiz-adv-x="772" 
d="M122 29q-57 41 -57 111q0 69 57 110t179 41q97 0 161.5 -19.5t125.5 -55.5v51q0 80 -56.5 126.5t-167.5 46.5q-101 0 -156 -35t-66 -85h-92q7 54 42.5 98.5t104 71.5t168.5 27q157 0 236 -67.5t79 -185.5v-150q0 -49 44 -49q15 0 33 5v-74q-25 -8 -51 -8q-49 0 -77 25.5
t-28 68.5v7h-13v-1q0 -24 -35 -47t-100.5 -38t-151.5 -15q-122 0 -179 41zM588 127v36q-59 29 -116.5 45t-139.5 16q-97 0 -136 -22t-39 -60t39 -60t136 -22q148 0 256 67zM197 580q-14 18 -22 40t-8 43q0 40 27.5 66t73.5 26q41 0 70.5 -18t62.5 -50q24 -23 40.5 -34
t34.5 -11t28.5 11t10.5 31q0 17 -7.5 36t-19.5 35h69q14 -18 22 -40t8 -43q0 -40 -27.5 -66t-73.5 -26q-41 0 -70.5 18t-62.5 50q-24 23 -40.5 34t-34.5 11t-28.5 -11t-10.5 -31q0 -17 7.5 -36t19.5 -35h-69z" />
    <glyph glyph-name="adieresis" unicode="&#xe4;" horiz-adv-x="772" 
d="M122 29q-57 41 -57 111q0 69 57 110t179 41q97 0 161.5 -19.5t125.5 -55.5v51q0 80 -56.5 126.5t-167.5 46.5q-101 0 -156 -35t-66 -85h-92q7 54 42.5 98.5t104 71.5t168.5 27q157 0 236 -67.5t79 -185.5v-150q0 -49 44 -49q15 0 33 5v-74q-25 -8 -51 -8q-49 0 -77 25.5
t-28 68.5v7h-13v-1q0 -24 -35 -47t-100.5 -38t-151.5 -15q-122 0 -179 41zM588 127v36q-59 29 -116.5 45t-139.5 16q-97 0 -136 -22t-39 -60t39 -60t136 -22q148 0 256 67zM215 627.5q-15 13.5 -15 34.5t15 34.5t41 13.5t41 -13.5t15 -34.5t-15 -34.5t-41 -13.5t-41 13.5z
M457 627.5q-15 13.5 -15 34.5t15 34.5t41 13.5t41 -13.5t15 -34.5t-15 -34.5t-41 -13.5t-41 13.5z" />
    <glyph glyph-name="aring" unicode="&#xe5;" horiz-adv-x="772" 
d="M122 29q-57 41 -57 111q0 69 57 110t179 41q97 0 161.5 -19.5t125.5 -55.5v51q0 80 -56.5 126.5t-167.5 46.5q-101 0 -156 -35t-66 -85h-92q7 54 42.5 98.5t104 71.5t168.5 27q157 0 236 -67.5t79 -185.5v-150q0 -49 44 -49q15 0 33 5v-74q-25 -8 -51 -8q-49 0 -77 25.5
t-28 68.5v7h-13v-1q0 -24 -35 -47t-100.5 -38t-151.5 -15q-122 0 -179 41zM588 127v36q-59 29 -116.5 45t-139.5 16q-97 0 -136 -22t-39 -60t39 -60t136 -22q148 0 256 67zM270 598q-39 33 -39 84t39 84.5t107 33.5t106.5 -33.5t38.5 -84.5t-38.5 -84t-106.5 -33t-107 33z
M435 642.5q20 15.5 20 39.5q0 25 -20 40.5t-58 15.5q-39 0 -59 -15.5t-20 -40.5q0 -24 20 -39.5t59 -15.5q38 0 58 15.5z" />
    <glyph glyph-name="ae" unicode="&#xe6;" horiz-adv-x="1275" 
d="M1223 216h-560q12 -69 74 -112.5t161 -43.5q92 0 144 29.5t77 70.5h92q-15 -42 -52.5 -81t-102.5 -65t-157 -26q-100 0 -169 34.5t-102 90.5q-47 -61 -127 -93t-205 -32q-119 0 -175 41t-56 111q0 69 56.5 110t174.5 41q93 0 157 -19.5t125 -55.5v51q0 79 -55.5 126
t-163.5 47q-98 0 -152 -35.5t-65 -84.5h-92q7 54 42 98.5t101 71.5t162 27q110 0 175.5 -39.5t91.5 -97.5q35 66 106 101.5t173 35.5q101 0 174 -35t111.5 -95t38.5 -135q0 -18 -2 -36zM736 400.5q-61 -44.5 -73 -117.5h471q-12 73 -73.5 117.5t-162.5 44.5t-162 -44.5z
M578 166q-56 28 -114 43t-137 15q-94 0 -132 -22t-38 -60t38 -60t132 -22q85 0 150 22t101 59v25z" />
    <glyph glyph-name="ccedilla" unicode="&#xe7;" horiz-adv-x="755" 
d="M549 106.5q62 41.5 74 103.5h92q-8 -61 -47 -110t-106.5 -79t-157.5 -33l-31 -43h12q173 0 173 -90q0 -41 -38.5 -65.5t-125.5 -24.5q-84 0 -141 27v67q62 -27 141 -27q50 0 68.5 8t18.5 22q0 15 -20 23t-76 8h-77v50l33 47q-92 7 -157.5 43t-99.5 93t-34 126
q0 75 39 135t114 95t180 35q96 0 168 -29t113.5 -79t50.5 -114h-92q-12 62 -74 103.5t-166 41.5q-76 0 -130.5 -25t-82.5 -67.5t-28 -95.5q0 -52 28 -94.5t82.5 -67.5t130.5 -25q104 0 166 41.5z" />
    <glyph glyph-name="egrave" unicode="&#xe8;" horiz-adv-x="774" 
d="M722 216h-580q13 -70 76.5 -113t169.5 -43q97 0 151 29.5t79 70.5h92q-25 -69 -104 -120.5t-220 -51.5q-106 0 -182 34.5t-115 94.5t-39 135t39 135t115 95t183 35t183 -35t115 -95t39 -135q0 -18 -2 -36zM216.5 400.5q-63.5 -44.5 -75.5 -117.5h492q-12 73 -75.5 117.5
t-170.5 44.5t-170.5 -44.5zM453 585h-77l-135 160h112z" />
    <glyph glyph-name="eacute" unicode="&#xe9;" horiz-adv-x="774" 
d="M722 216h-580q13 -70 76.5 -113t169.5 -43q97 0 151 29.5t79 70.5h92q-25 -69 -104 -120.5t-220 -51.5q-106 0 -182 34.5t-115 94.5t-39 135t39 135t115 95t183 35t183 -35t115 -95t39 -135q0 -18 -2 -36zM216.5 400.5q-63.5 -44.5 -75.5 -117.5h492q-12 73 -75.5 117.5
t-170.5 44.5t-170.5 -44.5zM398 585h-77l100 160h112z" />
    <glyph glyph-name="ecircumflex" unicode="&#xea;" horiz-adv-x="774" 
d="M722 216h-580q13 -70 76.5 -113t169.5 -43q97 0 151 29.5t79 70.5h92q-25 -69 -104 -120.5t-220 -51.5q-106 0 -182 34.5t-115 94.5t-39 135t39 135t115 95t183 35t183 -35t115 -95t39 -135q0 -18 -2 -36zM216.5 400.5q-63.5 -44.5 -75.5 -117.5h492q-12 73 -75.5 117.5
t-170.5 44.5t-170.5 -44.5zM424 745l178 -160h-100l-115 108l-116 -108h-100l178 160h75z" />
    <glyph glyph-name="edieresis" unicode="&#xeb;" horiz-adv-x="774" 
d="M722 216h-580q13 -70 76.5 -113t169.5 -43q97 0 151 29.5t79 70.5h92q-25 -69 -104 -120.5t-220 -51.5q-106 0 -182 34.5t-115 94.5t-39 135t39 135t115 95t183 35t183 -35t115 -95t39 -135q0 -18 -2 -36zM216.5 400.5q-63.5 -44.5 -75.5 -117.5h492q-12 73 -75.5 117.5
t-170.5 44.5t-170.5 -44.5zM225 627.5q-15 13.5 -15 34.5t15 34.5t41 13.5t41 -13.5t15 -34.5t-15 -34.5t-41 -13.5t-41 13.5zM467 627.5q-15 13.5 -15 34.5t15 34.5t41 13.5t41 -13.5t15 -34.5t-15 -34.5t-41 -13.5t-41 13.5z" />
    <glyph glyph-name="igrave" unicode="&#xec;" horiz-adv-x="535" 
d="M332 77h178v-77h-470v77h203v283q0 40 -17 57.5t-57 17.5q-19 0 -34 -3.5t-35 -10.5v79q44 17 97 17q70 0 102.5 -31t32.5 -95v-314zM338 585h-77l-135 160h112z" />
    <glyph glyph-name="iacute" unicode="&#xed;" horiz-adv-x="535" 
d="M332 77h178v-77h-470v77h203v283q0 40 -17 57.5t-57 17.5q-19 0 -34 -3.5t-35 -10.5v79q44 17 97 17q70 0 102.5 -31t32.5 -95v-314zM283 585h-77l100 160h112z" />
    <glyph glyph-name="icircumflex" unicode="&#xee;" horiz-adv-x="535" 
d="M332 77h178v-77h-470v77h203v283q0 40 -17 57.5t-57 17.5q-19 0 -34 -3.5t-35 -10.5v79q44 17 97 17q70 0 102.5 -31t32.5 -95v-314zM309 745l178 -160h-100l-115 108l-116 -108h-100l178 160h75z" />
    <glyph glyph-name="idieresis" unicode="&#xef;" horiz-adv-x="535" 
d="M332 77h178v-77h-470v77h203v283q0 40 -17 57.5t-57 17.5q-19 0 -34 -3.5t-35 -10.5v79q44 17 97 17q70 0 102.5 -31t32.5 -95v-314zM110 627.5q-15 13.5 -15 34.5t15 34.5t41 13.5t41 -13.5t15 -34.5t-15 -34.5t-41 -13.5t-41 13.5zM352 627.5q-15 13.5 -15 34.5
t15 34.5t41 13.5t41 -13.5t15 -34.5t-15 -34.5t-41 -13.5t-41 13.5z" />
    <glyph glyph-name="eth" unicode="&#xf0;" horiz-adv-x="775" 
d="M563 622q77 -56 117 -134t40 -165q0 -164 -87 -249.5t-257 -85.5q-107 0 -180.5 31t-109.5 84.5t-36 121.5q0 107 77 172t223 65q128 0 196 -44t86 -119h11v35q0 67 -34 129.5t-100 107.5l-81 -70l-45 38l73 63q-96 46 -226 52l9 68q157 -7 272 -68l79 68l45 -38z
M554.5 110.5q59.5 45.5 59.5 117.5q0 71 -59.5 116.5t-176.5 45.5t-176.5 -45.5t-59.5 -116.5q0 -72 59.5 -117.5t176.5 -45.5t176.5 45.5z" />
    <glyph glyph-name="ntilde" unicode="&#xf1;" horiz-adv-x="798" 
d="M80 0v505h92l-16 -160h13q20 77 87 124.5t176 47.5q137 0 214 -77.5t77 -216.5v-223h-92v204q0 114 -60 175t-170 61q-109 0 -169 -61t-60 -175v-204h-92zM221 580q-14 18 -22 40t-8 43q0 40 27.5 66t73.5 26q41 0 70.5 -18t62.5 -50q24 -23 40.5 -34t34.5 -11t28.5 11
t10.5 31q0 17 -7.5 36t-19.5 35h69q14 -18 22 -40t8 -43q0 -40 -27.5 -66t-73.5 -26q-41 0 -70.5 18t-62.5 50q-24 23 -40.5 34t-34.5 11t-28.5 -11t-10.5 -31q0 -17 7.5 -36t19.5 -35h-69z" />
    <glyph glyph-name="ograve" unicode="&#xf2;" horiz-adv-x="784" 
d="M206 22.5q-77 34.5 -116.5 94.5t-39.5 135t39.5 135.5t116.5 95t186 34.5t186 -34.5t116.5 -95t39.5 -135.5t-39.5 -135t-116.5 -94.5t-186 -34.5t-186 34.5zM528.5 90q56.5 25 85 67t28.5 95t-28.5 95.5t-85 67.5t-136.5 25t-136.5 -25t-85 -67.5t-28.5 -95.5t28.5 -95
t85 -67t136.5 -25t136.5 25zM458 585h-77l-135 160h112z" />
    <glyph glyph-name="oacute" unicode="&#xf3;" horiz-adv-x="784" 
d="M206 22.5q-77 34.5 -116.5 94.5t-39.5 135t39.5 135.5t116.5 95t186 34.5t186 -34.5t116.5 -95t39.5 -135.5t-39.5 -135t-116.5 -94.5t-186 -34.5t-186 34.5zM528.5 90q56.5 25 85 67t28.5 95t-28.5 95.5t-85 67.5t-136.5 25t-136.5 -25t-85 -67.5t-28.5 -95.5t28.5 -95
t85 -67t136.5 -25t136.5 25zM403 585h-77l100 160h112z" />
    <glyph glyph-name="ocircumflex" unicode="&#xf4;" horiz-adv-x="784" 
d="M206 22.5q-77 34.5 -116.5 94.5t-39.5 135t39.5 135.5t116.5 95t186 34.5t186 -34.5t116.5 -95t39.5 -135.5t-39.5 -135t-116.5 -94.5t-186 -34.5t-186 34.5zM528.5 90q56.5 25 85 67t28.5 95t-28.5 95.5t-85 67.5t-136.5 25t-136.5 -25t-85 -67.5t-28.5 -95.5t28.5 -95
t85 -67t136.5 -25t136.5 25zM429 745l178 -160h-100l-115 108l-116 -108h-100l178 160h75z" />
    <glyph glyph-name="otilde" unicode="&#xf5;" horiz-adv-x="784" 
d="M206 22.5q-77 34.5 -116.5 94.5t-39.5 135t39.5 135.5t116.5 95t186 34.5t186 -34.5t116.5 -95t39.5 -135.5t-39.5 -135t-116.5 -94.5t-186 -34.5t-186 34.5zM528.5 90q56.5 25 85 67t28.5 95t-28.5 95.5t-85 67.5t-136.5 25t-136.5 -25t-85 -67.5t-28.5 -95.5t28.5 -95
t85 -67t136.5 -25t136.5 25zM212 580q-14 18 -22 40t-8 43q0 40 27.5 66t73.5 26q41 0 70.5 -18t62.5 -50q24 -23 40.5 -34t34.5 -11t28.5 11t10.5 31q0 17 -7.5 36t-19.5 35h69q14 -18 22 -40t8 -43q0 -40 -27.5 -66t-73.5 -26q-41 0 -70.5 18t-62.5 50q-24 23 -40.5 34
t-34.5 11t-28.5 -11t-10.5 -31q0 -17 7.5 -36t19.5 -35h-69z" />
    <glyph glyph-name="odieresis" unicode="&#xf6;" horiz-adv-x="784" 
d="M206 22.5q-77 34.5 -116.5 94.5t-39.5 135t39.5 135.5t116.5 95t186 34.5t186 -34.5t116.5 -95t39.5 -135.5t-39.5 -135t-116.5 -94.5t-186 -34.5t-186 34.5zM528.5 90q56.5 25 85 67t28.5 95t-28.5 95.5t-85 67.5t-136.5 25t-136.5 -25t-85 -67.5t-28.5 -95.5t28.5 -95
t85 -67t136.5 -25t136.5 25zM230 627.5q-15 13.5 -15 34.5t15 34.5t41 13.5t41 -13.5t15 -34.5t-15 -34.5t-41 -13.5t-41 13.5zM472 627.5q-15 13.5 -15 34.5t15 34.5t41 13.5t41 -13.5t15 -34.5t-15 -34.5t-41 -13.5t-41 13.5z" />
    <glyph glyph-name="divide" unicode="&#xf7;" horiz-adv-x="610" 
d="M255.5 481.5q-18.5 16.5 -18.5 41.5t18.5 41.5t49.5 16.5t49.5 -16.5t18.5 -41.5t-18.5 -41.5t-49.5 -16.5t-49.5 16.5zM540 317h-470v67h470v-67zM255.5 136.5q-18.5 16.5 -18.5 41.5t18.5 41.5t49.5 16.5t49.5 -16.5t18.5 -41.5t-18.5 -41.5t-49.5 -16.5t-49.5 16.5z
" />
    <glyph glyph-name="oslash" unicode="&#xf8;" horiz-adv-x="784" 
d="M734 467l-64 -49q31 -34 47.5 -76.5t16.5 -89.5q0 -75 -39.5 -135t-116.5 -94.5t-186 -34.5q-134 0 -223 54l-70 -54l-49 50l64 48q-64 68 -64 166q0 75 39.5 135.5t116.5 95t186 34.5q135 0 222 -54l71 54zM253 418q-57 -25 -85.5 -68t-28.5 -98q0 -69 45 -117l365 275
q-63 33 -157 33q-82 0 -139 -25zM531 87q57 25 85.5 68t28.5 97q0 70 -45 118l-365 -275q63 -33 157 -33q82 0 139 25z" />
    <glyph glyph-name="ugrave" unicode="&#xf9;" horiz-adv-x="783" 
d="M150.5 64.5q-75.5 76.5 -75.5 211.5v229h92v-210q0 -110 58 -170t164 -60t164 60t58 170v210h92v-505h-92l16 160h-13q-20 -78 -85 -125t-171 -47q-132 0 -207.5 76.5zM455 585h-77l-135 160h112z" />
    <glyph glyph-name="uacute" unicode="&#xfa;" horiz-adv-x="783" 
d="M150.5 64.5q-75.5 76.5 -75.5 211.5v229h92v-210q0 -110 58 -170t164 -60t164 60t58 170v210h92v-505h-92l16 160h-13q-20 -78 -85 -125t-171 -47q-132 0 -207.5 76.5zM400 585h-77l100 160h112z" />
    <glyph glyph-name="ucircumflex" unicode="&#xfb;" horiz-adv-x="783" 
d="M150.5 64.5q-75.5 76.5 -75.5 211.5v229h92v-210q0 -110 58 -170t164 -60t164 60t58 170v210h92v-505h-92l16 160h-13q-20 -78 -85 -125t-171 -47q-132 0 -207.5 76.5zM426 745l178 -160h-100l-115 108l-116 -108h-100l178 160h75z" />
    <glyph glyph-name="udieresis" unicode="&#xfc;" horiz-adv-x="783" 
d="M150.5 64.5q-75.5 76.5 -75.5 211.5v229h92v-210q0 -110 58 -170t164 -60t164 60t58 170v210h92v-505h-92l16 160h-13q-20 -78 -85 -125t-171 -47q-132 0 -207.5 76.5zM227 627.5q-15 13.5 -15 34.5t15 34.5t41 13.5t41 -13.5t15 -34.5t-15 -34.5t-41 -13.5t-41 13.5z
M469 627.5q-15 13.5 -15 34.5t15 34.5t41 13.5t41 -13.5t15 -34.5t-15 -34.5t-41 -13.5t-41 13.5z" />
    <glyph glyph-name="yacute" unicode="&#xfd;" horiz-adv-x="701" 
d="M573 505h108l-296 -540q-54 -99 -108 -139.5t-134 -40.5q-44 0 -83 14v77q36 -14 73 -14q55 0 89 23.5t67 81.5l13 22l-282 516h108l193 -373q22 -43 22 -72v-1h13v1q0 31 21 72zM361 585h-77l100 160h112z" />
    <glyph glyph-name="thorn" unicode="&#xfe;" horiz-adv-x="800" 
d="M85 -195v895h92v-159q0 -45 -3.5 -83.5t-12.5 -97.5h13q24 71 93 114t180 43q92 0 159 -34t103 -94t36 -137t-36 -136.5t-103 -93.5t-159 -34q-111 0 -180 43t-93 114h-13q9 -60 12.5 -98.5t3.5 -83.5v-158h-92zM544.5 89.5q53.5 24.5 81 67t27.5 95.5q0 54 -27.5 96.5
t-81 67t-129.5 24.5t-129.5 -24.5t-81 -67t-27.5 -96.5q0 -53 27.5 -95.5t81 -67t129.5 -24.5t129.5 24.5z" />
    <glyph glyph-name="ydieresis" unicode="&#xff;" horiz-adv-x="701" 
d="M573 505h108l-296 -540q-54 -99 -108 -139.5t-134 -40.5q-44 0 -83 14v77q36 -14 73 -14q55 0 89 23.5t67 81.5l13 22l-282 516h108l193 -373q22 -43 22 -72v-1h13v1q0 31 21 72zM188 627.5q-15 13.5 -15 34.5t15 34.5t41 13.5t41 -13.5t15 -34.5t-15 -34.5t-41 -13.5
t-41 13.5zM430 627.5q-15 13.5 -15 34.5t15 34.5t41 13.5t41 -13.5t15 -34.5t-15 -34.5t-41 -13.5t-41 13.5z" />
    <glyph glyph-name="Amacron" unicode="&#x100;" horiz-adv-x="895" 
d="M870 0h-109l-71 141h-485l-71 -141h-109l363 700h119zM247 224h401l-161 317q-33 66 -33 97v1h-13v-1q0 -31 -33 -97zM656 828h-416v74h416v-74z" />
    <glyph glyph-name="amacron" unicode="&#x101;" horiz-adv-x="772" 
d="M122 29q-57 41 -57 111q0 69 57 110t179 41q97 0 161.5 -19.5t125.5 -55.5v51q0 80 -56.5 126.5t-167.5 46.5q-101 0 -156 -35t-66 -85h-92q7 54 42.5 98.5t104 71.5t168.5 27q157 0 236 -67.5t79 -185.5v-150q0 -49 44 -49q15 0 33 5v-74q-25 -8 -51 -8q-49 0 -77 25.5
t-28 68.5v7h-13v-1q0 -24 -35 -47t-100.5 -38t-151.5 -15q-122 0 -179 41zM588 127v36q-59 29 -116.5 45t-139.5 16q-97 0 -136 -22t-39 -60t39 -60t136 -22q148 0 256 67zM574 641h-394v67h394v-67z" />
    <glyph glyph-name="Abreve" unicode="&#x102;" horiz-adv-x="895" 
d="M870 0h-109l-71 141h-485l-71 -141h-109l363 700h119zM247 224h401l-161 317q-33 66 -33 97v1h-13v-1q0 -31 -33 -97zM267.5 818q-61.5 48 -70.5 132h85q7 -51 48 -79.5t117 -28.5q77 0 118 28.5t48 79.5h85q-9 -84 -70.5 -132t-180.5 -48q-118 0 -179.5 48z" />
    <glyph glyph-name="abreve" unicode="&#x103;" horiz-adv-x="772" 
d="M122 29q-57 41 -57 111q0 69 57 110t179 41q97 0 161.5 -19.5t125.5 -55.5v51q0 80 -56.5 126.5t-167.5 46.5q-101 0 -156 -35t-66 -85h-92q7 54 42.5 98.5t104 71.5t168.5 27q157 0 236 -67.5t79 -185.5v-150q0 -49 44 -49q15 0 33 5v-74q-25 -8 -51 -8q-49 0 -77 25.5
t-28 68.5v7h-13v-1q0 -24 -35 -47t-100.5 -38t-151.5 -15q-122 0 -179 41zM588 127v36q-59 29 -116.5 45t-139.5 16q-97 0 -136 -22t-39 -60t39 -60t136 -22q148 0 256 67zM220.5 626.5q-56.5 46.5 -63.5 123.5h78q5 -50 41.5 -77.5t100.5 -27.5t100.5 27.5t41.5 77.5h78
q-7 -77 -63.5 -123.5t-156.5 -46.5t-156.5 46.5z" />
    <glyph glyph-name="Aogonek" unicode="&#x104;" horiz-adv-x="895" 
d="M750.5 -143q18.5 -15 55.5 -15q31 0 64 12v-73q-35 -16 -86 -16q-68 0 -103.5 29t-35.5 77q0 42 28 76.5t87 55.5l-70 138h-485l-71 -141h-109l363 700h119l363 -700q-76 -20 -107 -45.5t-31 -56.5q0 -26 18.5 -41zM247 224h401l-161 317q-33 66 -33 97v1h-13v-1
q0 -31 -33 -97z" />
    <glyph glyph-name="aogonek" unicode="&#x105;" horiz-adv-x="772" 
d="M757 70v-74q-17 -6 -39 -8q-99 -33 -99 -90q0 -26 18.5 -41t55.5 -15q31 0 64 12v-73q-35 -16 -86 -16q-68 0 -103.5 29t-35.5 77q0 41 28 76t85 55q-44 24 -44 80v7h-13v-1q0 -24 -35 -47t-100.5 -38t-151.5 -15q-122 0 -179 41t-57 111q0 69 57 110t179 41
q97 0 161.5 -19.5t125.5 -55.5v51q0 80 -56.5 126.5t-167.5 46.5q-101 0 -156 -35t-66 -85h-92q7 54 42.5 98.5t104 71.5t168.5 27q157 0 236 -67.5t79 -185.5v-150q0 -49 44 -49q15 0 33 5zM588 163q-59 29 -116.5 45t-139.5 16q-97 0 -136 -22t-39 -60t39 -60t136 -22
q148 0 256 67v36z" />
    <glyph glyph-name="Cacute" unicode="&#x106;" horiz-adv-x="1008" 
d="M266 35q-101 47 -153.5 129.5t-52.5 185.5t52.5 185.5t153.5 129.5t243 47q133 0 228 -37.5t149.5 -102.5t71.5 -147h-103q-22 86 -107.5 142.5t-238.5 56.5q-109 0 -187.5 -36t-118.5 -98t-40 -140t40 -140t118.5 -98t187.5 -36q153 0 238.5 56.5t107.5 142.5h103
q-25 -130 -137 -208.5t-312 -78.5q-142 0 -243 47zM521 775h-87l120 170h130z" />
    <glyph glyph-name="cacute" unicode="&#x107;" horiz-adv-x="755" 
d="M203 22.5q-75 34.5 -114 94.5t-39 135t39 135t114 95t180 35q96 0 168 -29t113.5 -79t50.5 -114h-92q-12 62 -74 103.5t-166 41.5q-76 0 -130.5 -25t-82.5 -67.5t-28 -95.5q0 -52 28 -94.5t82.5 -67.5t130.5 -25q104 0 166 41.5t74 103.5h92q-9 -64 -50.5 -114
t-113.5 -79t-168 -29q-105 0 -180 34.5zM394 585h-77l100 160h112z" />
    <glyph glyph-name="Ccircumflex" unicode="&#x108;" horiz-adv-x="1008" 
d="M266 35q-101 47 -153.5 129.5t-52.5 185.5t52.5 185.5t153.5 129.5t243 47q133 0 228 -37.5t149.5 -102.5t71.5 -147h-103q-22 86 -107.5 142.5t-238.5 56.5q-109 0 -187.5 -36t-118.5 -98t-40 -140t40 -140t118.5 -98t187.5 -36q153 0 238.5 56.5t107.5 142.5h103
q-25 -130 -137 -208.5t-312 -78.5q-142 0 -243 47zM554 945l200 -170h-113l-132 119l-133 -119h-113l200 170h91z" />
    <glyph glyph-name="ccircumflex" unicode="&#x109;" horiz-adv-x="755" 
d="M203 22.5q-75 34.5 -114 94.5t-39 135t39 135t114 95t180 35q96 0 168 -29t113.5 -79t50.5 -114h-92q-12 62 -74 103.5t-166 41.5q-76 0 -130.5 -25t-82.5 -67.5t-28 -95.5q0 -52 28 -94.5t82.5 -67.5t130.5 -25q104 0 166 41.5t74 103.5h92q-9 -64 -50.5 -114
t-113.5 -79t-168 -29q-105 0 -180 34.5zM420 745l178 -160h-100l-115 108l-116 -108h-100l178 160h75z" />
    <glyph glyph-name="Cdotaccent" unicode="&#x10a;" horiz-adv-x="1008" 
d="M266 35q-101 47 -153.5 129.5t-52.5 185.5t52.5 185.5t153.5 129.5t243 47q133 0 228 -37.5t149.5 -102.5t71.5 -147h-103q-22 86 -107.5 142.5t-238.5 56.5q-109 0 -187.5 -36t-118.5 -98t-40 -140t40 -140t118.5 -98t187.5 -36q153 0 238.5 56.5t107.5 142.5h103
q-25 -130 -137 -208.5t-312 -78.5q-142 0 -243 47zM451.5 807q-20.5 18 -20.5 46q0 27 20.5 45t56.5 18t57 -18t21 -45q0 -28 -21 -46t-57 -18t-56.5 18z" />
    <glyph glyph-name="cdotaccent" unicode="&#x10b;" horiz-adv-x="755" 
d="M203 22.5q-75 34.5 -114 94.5t-39 135t39 135t114 95t180 35q96 0 168 -29t113.5 -79t50.5 -114h-92q-12 62 -74 103.5t-166 41.5q-76 0 -130.5 -25t-82.5 -67.5t-28 -95.5q0 -52 28 -94.5t82.5 -67.5t130.5 -25q104 0 166 41.5t74 103.5h92q-9 -64 -50.5 -114
t-113.5 -79t-168 -29q-105 0 -180 34.5zM336.5 621.5q-17.5 15.5 -17.5 40.5t17.5 40.5t46.5 15.5t46.5 -15.5t17.5 -40.5t-17.5 -40.5t-46.5 -15.5t-46.5 15.5z" />
    <glyph glyph-name="Ccaron" unicode="&#x10c;" horiz-adv-x="1008" 
d="M266 35q-101 47 -153.5 129.5t-52.5 185.5t52.5 185.5t153.5 129.5t243 47q133 0 228 -37.5t149.5 -102.5t71.5 -147h-103q-22 86 -107.5 142.5t-238.5 56.5q-109 0 -187.5 -36t-118.5 -98t-40 -140t40 -140t118.5 -98t187.5 -36q153 0 238.5 56.5t107.5 142.5h103
q-25 -130 -137 -208.5t-312 -78.5q-142 0 -243 47zM509 826l132 119h113l-200 -170h-91l-200 170h113z" />
    <glyph glyph-name="ccaron" unicode="&#x10d;" horiz-adv-x="755" 
d="M203 22.5q-75 34.5 -114 94.5t-39 135t39 135t114 95t180 35q96 0 168 -29t113.5 -79t50.5 -114h-92q-12 62 -74 103.5t-166 41.5q-76 0 -130.5 -25t-82.5 -67.5t-28 -95.5q0 -52 28 -94.5t82.5 -67.5t130.5 -25q104 0 166 41.5t74 103.5h92q-9 -64 -50.5 -114
t-113.5 -79t-168 -29q-105 0 -180 34.5zM383 637l115 108h100l-178 -160h-75l-178 160h100z" />
    <glyph glyph-name="Dcaron" unicode="&#x10e;" horiz-adv-x="911" 
d="M95 0v700h335q131 0 226 -46t145 -125.5t50 -178.5t-50 -178.5t-145 -125.5t-226 -46h-335zM430 88q98 0 170 34.5t110 94t38 133.5t-38 133.5t-110 94t-170 34.5h-232v-524h232zM460 826l132 119h113l-200 -170h-91l-200 170h113z" />
    <glyph glyph-name="dcaron" unicode="&#x10f;" horiz-adv-x="800" 
d="M194 22q-67 34 -103 93.5t-36 136.5t36 137t103 94t159 34q111 0 180 -43t93 -114h13q-9 59 -12.5 97.5t-3.5 83.5v159h92v-700h-92l16 145h-13q-24 -71 -93 -114t-180 -43q-92 0 -159 34zM514.5 89.5q53.5 24.5 81 67t27.5 95.5q0 54 -27.5 96.5t-81 67t-129.5 24.5
t-129.5 -24.5t-81 -67t-27.5 -96.5q0 -53 27.5 -95.5t81 -67t129.5 -24.5t129.5 24.5zM848 520h-62l19 180h87z" />
    <glyph glyph-name="Dcroat" unicode="&#x110;" horiz-adv-x="941" 
d="M460 700q131 0 226 -46t145 -125.5t50 -178.5t-50 -178.5t-145 -125.5t-226 -46h-335v313h-125v73h125v314h335zM460 88q98 0 170 34.5t110 94t38 133.5t-38 133.5t-110 94t-170 34.5h-232v-226h225v-73h-225v-225h232z" />
    <glyph glyph-name="dcroat" unicode="&#x111;" horiz-adv-x="830" 
d="M815 631v-67h-105v-564h-92l16 145h-13q-24 -74 -90.5 -115.5t-182.5 -41.5q-94 0 -161 32t-102 88.5t-35 128.5q0 73 35 129.5t102 88.5t161 32q116 0 182.5 -41.5t90.5 -115.5h13q-9 59 -12.5 97.5t-3.5 83.5v53h-265v67h265v69h92v-69h105zM511.5 87.5
q53.5 22.5 80 61.5t26.5 88q0 76 -61 124.5t-177 48.5t-177 -48.5t-61 -124.5q0 -49 26.5 -88t80 -61.5t131.5 -22.5t131.5 22.5z" />
    <glyph glyph-name="Emacron" unicode="&#x112;" horiz-adv-x="835" 
d="M765 700v-88h-567v-215h497v-83h-497v-226h567v-88h-670v700h670zM638 828h-416v74h416v-74z" />
    <glyph glyph-name="emacron" unicode="&#x113;" horiz-adv-x="774" 
d="M722 216h-580q13 -70 76.5 -113t169.5 -43q97 0 151 29.5t79 70.5h92q-25 -69 -104 -120.5t-220 -51.5q-106 0 -182 34.5t-115 94.5t-39 135t39 135t115 95t183 35t183 -35t115 -95t39 -135q0 -18 -2 -36zM216.5 400.5q-63.5 -44.5 -75.5 -117.5h492q-12 73 -75.5 117.5
t-170.5 44.5t-170.5 -44.5zM584 641h-394v67h394v-67z" />
    <glyph glyph-name="Ebreve" unicode="&#x114;" horiz-adv-x="835" 
d="M765 700v-88h-567v-215h497v-83h-497v-226h567v-88h-670v700h670zM249.5 818q-61.5 48 -70.5 132h85q7 -51 48 -79.5t117 -28.5q77 0 118 28.5t48 79.5h85q-9 -84 -70.5 -132t-180.5 -48q-118 0 -179.5 48z" />
    <glyph glyph-name="ebreve" unicode="&#x115;" horiz-adv-x="774" 
d="M722 216h-580q13 -70 76.5 -113t169.5 -43q97 0 151 29.5t79 70.5h92q-25 -69 -104 -120.5t-220 -51.5q-106 0 -182 34.5t-115 94.5t-39 135t39 135t115 95t183 35t183 -35t115 -95t39 -135q0 -18 -2 -36zM216.5 400.5q-63.5 -44.5 -75.5 -117.5h492q-12 73 -75.5 117.5
t-170.5 44.5t-170.5 -44.5zM230.5 626.5q-56.5 46.5 -63.5 123.5h78q5 -50 41.5 -77.5t100.5 -27.5t100.5 27.5t41.5 77.5h78q-7 -77 -63.5 -123.5t-156.5 -46.5t-156.5 46.5z" />
    <glyph glyph-name="Edotaccent" unicode="&#x116;" horiz-adv-x="835" 
d="M765 700v-88h-567v-215h497v-83h-497v-226h567v-88h-670v700h670zM372.5 807q-20.5 18 -20.5 46q0 27 20.5 45t56.5 18t57 -18t21 -45q0 -28 -21 -46t-57 -18t-56.5 18z" />
    <glyph glyph-name="edotaccent" unicode="&#x117;" horiz-adv-x="774" 
d="M722 216h-580q13 -70 76.5 -113t169.5 -43q97 0 151 29.5t79 70.5h92q-25 -69 -104 -120.5t-220 -51.5q-106 0 -182 34.5t-115 94.5t-39 135t39 135t115 95t183 35t183 -35t115 -95t39 -135q0 -18 -2 -36zM216.5 400.5q-63.5 -44.5 -75.5 -117.5h492q-12 73 -75.5 117.5
t-170.5 44.5t-170.5 -44.5zM340.5 621.5q-17.5 15.5 -17.5 40.5t17.5 40.5t46.5 15.5t46.5 -15.5t17.5 -40.5t-17.5 -40.5t-46.5 -15.5t-46.5 15.5z" />
    <glyph glyph-name="Eogonek" unicode="&#x118;" horiz-adv-x="835" 
d="M765 612h-567v-215h497v-83h-497v-226h567v-88q-76 -20 -107 -45.5t-31 -56.5q0 -26 18.5 -41t55.5 -15q31 0 64 12v-73q-35 -16 -86 -16q-68 0 -103.5 29t-35.5 77q0 40 26.5 74t80.5 55h-552v700h670v-88z" />
    <glyph glyph-name="eogonek" unicode="&#x119;" horiz-adv-x="774" 
d="M722 216h-580q13 -70 76.5 -113t169.5 -43q97 0 151 29.5t79 70.5h92q-14 -37 -40.5 -67.5t-72.5 -59.5q-76 -47 -104.5 -77t-28.5 -58q0 -26 18.5 -41t55.5 -15q31 0 64 12v-73q-35 -16 -86 -16q-68 0 -103.5 29t-35.5 77q0 36 21.5 68.5t64.5 53.5q-35 -5 -77 -5
q-106 0 -182 34.5t-115 94.5t-39 135t39 135t115 95t183 35t183 -35t115 -95t39 -135q0 -18 -2 -36zM216.5 400.5q-63.5 -44.5 -75.5 -117.5h492q-12 73 -75.5 117.5t-170.5 44.5t-170.5 -44.5z" />
    <glyph glyph-name="Ecaron" unicode="&#x11a;" horiz-adv-x="835" 
d="M765 700v-88h-567v-215h497v-83h-497v-226h567v-88h-670v700h670zM430 826l132 119h113l-200 -170h-91l-200 170h113z" />
    <glyph glyph-name="ecaron" unicode="&#x11b;" horiz-adv-x="774" 
d="M722 216h-580q13 -70 76.5 -113t169.5 -43q97 0 151 29.5t79 70.5h92q-25 -69 -104 -120.5t-220 -51.5q-106 0 -182 34.5t-115 94.5t-39 135t39 135t115 95t183 35t183 -35t115 -95t39 -135q0 -18 -2 -36zM216.5 400.5q-63.5 -44.5 -75.5 -117.5h492q-12 73 -75.5 117.5
t-170.5 44.5t-170.5 -44.5zM387 637l115 108h100l-178 -160h-75l-178 160h100z" />
    <glyph glyph-name="Gcircumflex" unicode="&#x11c;" horiz-adv-x="1008" 
d="M434 271v78h499v-349h-93l20 180h-13q-19 -45 -61.5 -88t-117.5 -73.5t-181 -30.5q-131 0 -228 47.5t-148 129.5t-51 185t52 185.5t152.5 129.5t240.5 47q132 0 226.5 -38t149 -103t72.5 -146h-103q-26 88 -112.5 143.5t-232.5 55.5q-107 0 -184.5 -36t-117.5 -98
t-40 -140q0 -80 40 -143.5t117.5 -99.5t185.5 -36q94 0 162.5 29.5t108.5 75t55 95.5h-398zM550 945l200 -170h-113l-132 119l-133 -119h-113l200 170h91z" />
    <glyph glyph-name="gcircumflex" unicode="&#x11d;" horiz-adv-x="769" 
d="M107 -182q-77 43 -77 122q0 105 128 133v11h-18q-34 0 -52 15t-18 41t18 41t52 15h39v11q-50 14 -79.5 48t-29.5 86q0 84 73.5 130t247.5 46h195q22 0 33 8.5t11 22.5q0 11 -6.5 22.5t-22.5 26.5h90q28 -21 28 -51q0 -25 -18.5 -39.5t-55.5 -14.5h-53v-11
q57 -17 87 -52.5t30 -87.5q0 -166 -312 -166h-206q-20 0 -32 -10t-12 -26q0 -15 12 -25t32 -10h227q173 0 244.5 -43t71.5 -120q0 -80 -77 -123t-275 -43t-275 43zM569 264.5q51 27.5 51 76.5t-51 76.5t-179 27.5q-129 0 -180 -27.5t-51 -76.5t51 -76.5t180 -27.5
q128 0 179 27.5zM544.5 -140.5q57.5 12.5 79 33.5t21.5 51q0 31 -21 52t-79 33.5t-163 12.5t-163 -12.5t-79 -33.5t-21 -52q0 -30 21.5 -51t79 -33.5t162.5 -12.5t162.5 12.5zM420 745l171 -130h-100l-108 83l-109 -83h-100l171 130h75z" />
    <glyph glyph-name="Gbreve" unicode="&#x11e;" horiz-adv-x="1008" 
d="M434 271v78h499v-349h-93l20 180h-13q-19 -45 -61.5 -88t-117.5 -73.5t-181 -30.5q-131 0 -228 47.5t-148 129.5t-51 185t52 185.5t152.5 129.5t240.5 47q132 0 226.5 -38t149 -103t72.5 -146h-103q-26 88 -112.5 143.5t-232.5 55.5q-107 0 -184.5 -36t-117.5 -98
t-40 -140q0 -80 40 -143.5t117.5 -99.5t185.5 -36q94 0 162.5 29.5t108.5 75t55 95.5h-398zM324.5 818q-61.5 48 -70.5 132h85q7 -51 48 -79.5t117 -28.5q77 0 118 28.5t48 79.5h85q-9 -84 -70.5 -132t-180.5 -48q-118 0 -179.5 48z" />
    <glyph glyph-name="gbreve" unicode="&#x11f;" horiz-adv-x="769" 
d="M107 -182q-77 43 -77 122q0 105 128 133v11h-18q-34 0 -52 15t-18 41t18 41t52 15h39v11q-50 14 -79.5 48t-29.5 86q0 84 73.5 130t247.5 46h195q22 0 33 8.5t11 22.5q0 11 -6.5 22.5t-22.5 26.5h90q28 -21 28 -51q0 -25 -18.5 -39.5t-55.5 -14.5h-53v-11
q57 -17 87 -52.5t30 -87.5q0 -166 -312 -166h-206q-20 0 -32 -10t-12 -26q0 -15 12 -25t32 -10h227q173 0 244.5 -43t71.5 -120q0 -80 -77 -123t-275 -43t-275 43zM569 264.5q51 27.5 51 76.5t-51 76.5t-179 27.5q-129 0 -180 -27.5t-51 -76.5t51 -76.5t180 -27.5
q128 0 179 27.5zM544.5 -140.5q57.5 12.5 79 33.5t21.5 51q0 31 -21 52t-79 33.5t-163 12.5t-163 -12.5t-79 -33.5t-21 -52q0 -30 21.5 -51t79 -33.5t162.5 -12.5t162.5 12.5zM228.5 626.5q-55.5 46.5 -60.5 123.5h78q3 -50 38.5 -77.5t98.5 -27.5t98.5 27.5t38.5 77.5h78
q-5 -77 -60.5 -123.5t-154.5 -46.5t-154.5 46.5z" />
    <glyph glyph-name="Gdotaccent" unicode="&#x120;" horiz-adv-x="1008" 
d="M434 271v78h499v-349h-93l20 180h-13q-19 -45 -61.5 -88t-117.5 -73.5t-181 -30.5q-131 0 -228 47.5t-148 129.5t-51 185t52 185.5t152.5 129.5t240.5 47q132 0 226.5 -38t149 -103t72.5 -146h-103q-26 88 -112.5 143.5t-232.5 55.5q-107 0 -184.5 -36t-117.5 -98
t-40 -140q0 -80 40 -143.5t117.5 -99.5t185.5 -36q94 0 162.5 29.5t108.5 75t55 95.5h-398zM447.5 807q-20.5 18 -20.5 46q0 27 20.5 45t56.5 18t57 -18t21 -45q0 -28 -21 -46t-57 -18t-56.5 18z" />
    <glyph glyph-name="gdotaccent" unicode="&#x121;" horiz-adv-x="769" 
d="M107 -182q-77 43 -77 122q0 105 128 133v11h-18q-34 0 -52 15t-18 41t18 41t52 15h39v11q-50 14 -79.5 48t-29.5 86q0 84 73.5 130t247.5 46h195q22 0 33 8.5t11 22.5q0 11 -6.5 22.5t-22.5 26.5h90q28 -21 28 -51q0 -25 -18.5 -39.5t-55.5 -14.5h-53v-11
q57 -17 87 -52.5t30 -87.5q0 -166 -312 -166h-206q-20 0 -32 -10t-12 -26q0 -15 12 -25t32 -10h227q173 0 244.5 -43t71.5 -120q0 -80 -77 -123t-275 -43t-275 43zM569 264.5q51 27.5 51 76.5t-51 76.5t-179 27.5q-129 0 -180 -27.5t-51 -76.5t51 -76.5t180 -27.5
q128 0 179 27.5zM544.5 -140.5q57.5 12.5 79 33.5t21.5 51q0 31 -21 52t-79 33.5t-163 12.5t-163 -12.5t-79 -33.5t-21 -52q0 -30 21.5 -51t79 -33.5t162.5 -12.5t162.5 12.5zM339.5 621.5q-17.5 15.5 -17.5 40.5t17.5 40.5t46.5 15.5t46.5 -15.5t17.5 -40.5t-17.5 -40.5
t-46.5 -15.5t-46.5 15.5z" />
    <glyph glyph-name="uni0122" unicode="&#x122;" horiz-adv-x="1008" 
d="M434 271v78h499v-349h-93l20 180h-13q-19 -45 -61.5 -88t-117.5 -73.5t-181 -30.5q-131 0 -228 47.5t-148 129.5t-51 185t52 185.5t152.5 129.5t240.5 47q132 0 226.5 -38t149 -103t72.5 -146h-103q-26 88 -112.5 143.5t-232.5 55.5q-107 0 -184.5 -36t-117.5 -98
t-40 -140q0 -80 40 -143.5t117.5 -99.5t185.5 -36q94 0 162.5 29.5t108.5 75t55 95.5h-398zM575 -124q0 -46 -19.5 -85.5t-52 -63.5t-69.5 -24v70h8q41 0 69 21.5t34 56.5q-9 -4 -26 -4q-24 0 -39.5 14.5t-15.5 36.5q0 21 14.5 35.5t36.5 14.5q60 0 60 -72z" />
    <glyph glyph-name="uni0123" unicode="&#x123;" horiz-adv-x="769" 
d="M107 -182q-77 43 -77 122q0 105 128 133v11h-18q-34 0 -52 15t-18 41t18 41t52 15h39v11q-50 14 -79.5 48t-29.5 86q0 84 73.5 130t247.5 46h195q22 0 33 8.5t11 22.5q0 11 -6.5 22.5t-22.5 26.5h90q28 -21 28 -51q0 -25 -18.5 -39.5t-55.5 -14.5h-53v-11
q57 -17 87 -52.5t30 -87.5q0 -166 -312 -166h-206q-20 0 -32 -10t-12 -26q0 -15 12 -25t32 -10h227q173 0 244.5 -43t71.5 -120q0 -80 -77 -123t-275 -43t-275 43zM569 264.5q51 27.5 51 76.5t-51 76.5t-179 27.5q-129 0 -180 -27.5t-51 -76.5t51 -76.5t180 -27.5
q128 0 179 27.5zM544.5 -140.5q57.5 12.5 79 33.5t21.5 51q0 31 -21 52t-79 33.5t-163 12.5t-163 -12.5t-79 -33.5t-21 -52q0 -30 21.5 -51t79 -33.5t162.5 -12.5t162.5 12.5zM350.5 746.5q19.5 39.5 52 63.5t69.5 24v-70h-8q-41 0 -69 -21.5t-34 -56.5q9 4 26 4
q24 0 39.5 -14.5t15.5 -36.5q0 -21 -14.5 -35.5t-36.5 -14.5q-60 0 -60 72q0 46 19.5 85.5z" />
    <glyph glyph-name="Hcircumflex" unicode="&#x124;" horiz-adv-x="966" 
d="M768 405v295h103v-700h-103v317h-570v-317h-103v700h103v-295h570zM520 940l178 -160h-100l-115 108l-116 -108h-100l178 160h75z" />
    <glyph glyph-name="hcircumflex" unicode="&#x125;" horiz-adv-x="803" 
d="M85 0v700h92v-176q0 -45 -3.5 -83.5t-12.5 -95.5h13q20 77 87 124.5t176 47.5q137 0 214 -77.5t77 -216.5v-223h-92v204q0 114 -60 175t-170 61q-109 0 -169 -61t-60 -175v-204h-92zM452 945l200 -170h-113l-132 119l-133 -119h-113l200 170h91z" />
    <glyph glyph-name="Hbar" unicode="&#x126;" horiz-adv-x="1026" 
d="M901 594h125v-73h-125v-521h-103v317h-570v-317h-103v521h-125v73h125v106h103v-109h570v109h103v-106zM228 523v-118h570v118h-570z" />
    <glyph glyph-name="hbar" unicode="&#x127;" horiz-adv-x="838" 
d="M686 409.5q77 -77.5 77 -216.5v-193h-92v174q0 114 -60 175t-170 61q-109 0 -169 -61t-60 -175v-174h-92v564h-105v67h105v69h92v-69h265v-67h-265v-70q0 -45 -3.5 -83.5t-12.5 -95.5h13q20 77 87 124.5t176 47.5q137 0 214 -77.5z" />
    <glyph glyph-name="Itilde" unicode="&#x128;" horiz-adv-x="731" 
d="M661 0h-591v88h244v524h-244v88h591v-88h-244v-524h244v-88zM170 775q-30 45 -30 90q0 43 28 69t77 26q43 0 74.5 -18t71.5 -53q28 -24 46.5 -35.5t37.5 -11.5q18 0 28.5 11t10.5 32q0 36 -27 75h74q30 -45 30 -90q0 -43 -28 -69t-77 -26q-43 0 -74.5 18t-71.5 53
q-28 24 -46.5 35.5t-37.5 11.5q-18 0 -28.5 -11t-10.5 -32q0 -36 27 -75h-74z" />
    <glyph glyph-name="itilde" unicode="&#x129;" horiz-adv-x="535" 
d="M332 77h178v-77h-470v77h203v283q0 40 -17 57.5t-57 17.5q-19 0 -34 -3.5t-35 -10.5v79q44 17 97 17q70 0 102.5 -31t32.5 -95v-314zM92 580q-14 18 -22 40t-8 43q0 40 27.5 66t73.5 26q41 0 70.5 -18t62.5 -50q24 -23 40.5 -34t34.5 -11t28.5 11t10.5 31q0 17 -7.5 36
t-19.5 35h69q14 -18 22 -40t8 -43q0 -40 -27.5 -66t-73.5 -26q-41 0 -70.5 18t-62.5 50q-24 23 -40.5 34t-34.5 11t-28.5 -11t-10.5 -31q0 -17 7.5 -36t19.5 -35h-69z" />
    <glyph glyph-name="Imacron" unicode="&#x12a;" horiz-adv-x="731" 
d="M661 0h-591v88h244v524h-244v88h591v-88h-244v-524h244v-88zM574 828h-416v74h416v-74z" />
    <glyph glyph-name="imacron" unicode="&#x12b;" horiz-adv-x="535" 
d="M332 77h178v-77h-470v77h203v283q0 40 -17 57.5t-57 17.5q-19 0 -34 -3.5t-35 -10.5v79q44 17 97 17q70 0 102.5 -31t32.5 -95v-314zM469 641h-394v67h394v-67z" />
    <glyph glyph-name="Ibreve" unicode="&#x12c;" horiz-adv-x="731" 
d="M661 0h-591v88h244v524h-244v88h591v-88h-244v-524h244v-88zM185.5 818q-61.5 48 -70.5 132h85q7 -51 48 -79.5t117 -28.5q77 0 118 28.5t48 79.5h85q-9 -84 -70.5 -132t-180.5 -48q-118 0 -179.5 48z" />
    <glyph glyph-name="ibreve" unicode="&#x12d;" horiz-adv-x="535" 
d="M332 77h178v-77h-470v77h203v283q0 40 -17 57.5t-57 17.5q-19 0 -34 -3.5t-35 -10.5v79q44 17 97 17q70 0 102.5 -31t32.5 -95v-314zM115.5 626.5q-56.5 46.5 -63.5 123.5h78q5 -50 41.5 -77.5t100.5 -27.5t100.5 27.5t41.5 77.5h78q-7 -77 -63.5 -123.5t-156.5 -46.5
t-156.5 46.5z" />
    <glyph glyph-name="Iogonek" unicode="&#x12e;" horiz-adv-x="731" 
d="M661 612h-244v-524h244v-88h-230q-76 -20 -107 -45.5t-31 -56.5q0 -26 18.5 -41t55.5 -15q31 0 64 12v-73q-35 -16 -86 -16q-68 0 -103.5 29t-35.5 77q0 40 26.5 74t80.5 55h-243v88h244v524h-244v88h591v-88z" />
    <glyph glyph-name="iogonek" unicode="&#x12f;" horiz-adv-x="535" 
d="M225.5 621.5q-17.5 15.5 -17.5 40.5t17.5 40.5t46.5 15.5t46.5 -15.5t17.5 -40.5t-17.5 -40.5t-46.5 -15.5t-46.5 15.5zM332 77h178v-77h-160q-76 -20 -107 -45.5t-31 -56.5q0 -26 18.5 -41t55.5 -15q31 0 64 12v-73q-35 -16 -86 -16q-68 0 -103.5 29t-35.5 77
q0 40 26.5 74t80.5 55h-192v77h203v283q0 40 -17 57.5t-57 17.5q-19 0 -34 -3.5t-35 -10.5v79q44 17 97 17q70 0 102.5 -31t32.5 -95v-314z" />
    <glyph glyph-name="Idotaccent" unicode="&#x130;" horiz-adv-x="731" 
d="M661 0h-591v88h244v524h-244v88h591v-88h-244v-524h244v-88zM308.5 807q-20.5 18 -20.5 46q0 27 20.5 45t56.5 18t57 -18t21 -45q0 -28 -21 -46t-57 -18t-56.5 18z" />
    <glyph glyph-name="dotlessi" unicode="&#x131;" horiz-adv-x="535" 
d="M332 77h178v-77h-470v77h203v283q0 40 -17 57.5t-57 17.5q-19 0 -34 -3.5t-35 -10.5v79q44 17 97 17q70 0 102.5 -31t32.5 -95v-314z" />
    <glyph glyph-name="IJ" unicode="&#x132;" horiz-adv-x="1504" 
d="M661 0h-591v88h244v524h-244v88h591v-88h-244v-524h244v-88zM826.5 64q-85.5 76 -85.5 214v22h103v-19q0 -99 58.5 -152t177.5 -53t177.5 53t58.5 152v331h-475v88h578v-422q0 -138 -85.5 -214t-253.5 -76t-253.5 76z" />
    <glyph glyph-name="ij" unicode="&#x133;" horiz-adv-x="870" 
d="M332 77h178v-77h-470v77h203v283q0 40 -17 57.5t-57 17.5q-19 0 -34 -3.5t-35 -10.5v79q44 17 97 17q70 0 102.5 -31t32.5 -95v-314zM225.5 621.5q-17.5 15.5 -17.5 40.5t17.5 40.5t46.5 15.5t46.5 -15.5t17.5 -40.5t-17.5 -40.5t-46.5 -15.5t-46.5 15.5zM512 -212
q-22 3 -47 11v77q42 -14 86 -14q81 0 118 31.5t37 94.5v372q0 40 -17 57.5t-57 17.5q-19 0 -34 -3.5t-35 -10.5v79q44 17 97 17q70 0 102.5 -31t32.5 -95v-404q0 -202 -229 -202q-32 0 -54 3zM688.5 621.5q-17.5 15.5 -17.5 40.5t17.5 40.5t46.5 15.5t46.5 -15.5t17.5 -40.5
t-17.5 -40.5t-46.5 -15.5t-46.5 15.5z" />
    <glyph glyph-name="Jcircumflex" unicode="&#x134;" horiz-adv-x="813" 
d="M135.5 64q-85.5 76 -85.5 214v22h103v-19q0 -99 58.5 -152t177.5 -53t177.5 53t58.5 152v331h-475v88h578v-422q0 -138 -85.5 -214t-253.5 -76t-253.5 76zM484 945l200 -170h-113l-132 119l-133 -119h-113l200 170h91z" />
    <glyph glyph-name="jcircumflex" unicode="&#x135;" horiz-adv-x="335" 
d="M-23 -212q-22 3 -47 11v77q42 -14 86 -14q81 0 118 31.5t37 94.5v372q0 40 -17 57.5t-57 17.5q-19 0 -34 -3.5t-35 -10.5v79q44 17 97 17q70 0 102.5 -31t32.5 -95v-404q0 -202 -229 -202q-32 0 -54 3zM237 745l178 -160h-100l-115 108l-116 -108h-100l178 160h75z" />
    <glyph glyph-name="uni0136" unicode="&#x136;" horiz-adv-x="829" 
d="M331 362l493 -362h-158l-468 349v-349h-103v700h103v-329l453 329h153zM491 -124q0 -46 -19.5 -85.5t-52 -63.5t-69.5 -24v70h8q41 0 69 21.5t34 56.5q-9 -4 -26 -4q-24 0 -39.5 14.5t-15.5 36.5q0 21 14.5 35.5t36.5 14.5q60 0 60 -72z" />
    <glyph glyph-name="uni0137" unicode="&#x137;" horiz-adv-x="674" 
d="M300 262l369 -262h-142l-350 255v-255h-92v700h92v-432l342 237h140zM411 -124q0 -46 -19.5 -85.5t-52 -63.5t-69.5 -24v70h8q41 0 69 21.5t34 56.5q-9 -4 -26 -4q-24 0 -39.5 14.5t-15.5 36.5q0 21 14.5 35.5t36.5 14.5q60 0 60 -72z" />
    <glyph glyph-name="Lacute" unicode="&#x139;" horiz-adv-x="775" 
d="M725 0h-630v700h103v-612h527v-88zM159 775h-87l120 170h130z" />
    <glyph glyph-name="lacute" unicode="&#x13a;" horiz-adv-x="575" 
d="M351 77h199v-77h-515v77h224v478q0 41 -18 58t-63 17q-23 0 -40 -4t-40 -13v79q47 20 107 20q77 0 111.5 -30.5t34.5 -94.5v-510zM304 775h-87l120 170h130z" />
    <glyph glyph-name="uni013B" unicode="&#x13b;" horiz-adv-x="775" 
d="M725 0h-630v700h103v-612h527v-88zM466 -124q0 -46 -19.5 -85.5t-52 -63.5t-69.5 -24v70h8q41 0 69 21.5t34 56.5q-9 -4 -26 -4q-24 0 -39.5 14.5t-15.5 36.5q0 21 14.5 35.5t36.5 14.5q60 0 60 -72z" />
    <glyph glyph-name="uni013C" unicode="&#x13c;" horiz-adv-x="575" 
d="M351 77h199v-77h-515v77h224v478q0 41 -18 58t-63 17q-23 0 -40 -4t-40 -13v79q47 20 107 20q77 0 111.5 -30.5t34.5 -94.5v-510zM363 -124q0 -46 -19.5 -85.5t-52 -63.5t-69.5 -24v70h8q41 0 69 21.5t34 56.5q-9 -4 -26 -4q-24 0 -39.5 14.5t-15.5 36.5q0 21 14.5 35.5
t36.5 14.5q60 0 60 -72z" />
    <glyph glyph-name="Lcaron" unicode="&#x13d;" horiz-adv-x="775" 
d="M725 0h-630v700h103v-612h527v-88zM331 520h-62l19 180h87z" />
    <glyph glyph-name="lcaron" unicode="&#x13e;" horiz-adv-x="575" 
d="M351 77h199v-77h-515v77h224v478q0 41 -18 58t-63 17q-23 0 -40 -4t-40 -13v79q47 20 107 20q77 0 111.5 -30.5t34.5 -94.5v-510zM484 520h-62l19 180h87z" />
    <glyph glyph-name="Ldot" unicode="&#x13f;" horiz-adv-x="775" 
d="M725 0h-630v700h103v-612h527v-88zM488.5 358.5q-17.5 16.5 -17.5 41.5t17.5 41.5t45.5 16.5t45.5 -16.5t17.5 -41.5t-17.5 -41.5t-45.5 -16.5t-45.5 16.5z" />
    <glyph glyph-name="ldot" unicode="&#x140;" horiz-adv-x="526" 
d="M351 77h199v-77h-515v77h224v478q0 41 -18 58t-63 17q-23 0 -40 -4t-40 -13v79q47 20 107 20q77 0 111.5 -30.5t34.5 -94.5v-510zM522.5 327.5q-17.5 16.5 -17.5 41.5t17.5 41.5t45.5 16.5t45.5 -16.5t17.5 -41.5t-17.5 -41.5t-45.5 -16.5t-45.5 16.5z" />
    <glyph glyph-name="Lslash" unicode="&#x141;" horiz-adv-x="805" 
d="M228 317v-229h527v-88h-630v272l-125 -55v80l125 55v348h103v-303l260 115v-80z" />
    <glyph glyph-name="lslash" unicode="&#x142;" horiz-adv-x="575" 
d="M351 77h199v-77h-515v77h224v238l-120 -58v69l120 58v171q0 41 -18 58t-63 17q-23 0 -40 -4t-40 -13v79q47 20 107 20q77 0 111.5 -30.5t34.5 -94.5v-159l125 60v-69l-125 -60v-282z" />
    <glyph glyph-name="Nacute" unicode="&#x143;" horiz-adv-x="976" 
d="M95 0v700h162l528 -639h13q-9 40 -13 70.5t-4 74.5v494h100v-700h-162l-528 639h-13q9 -40 13 -70.5t4 -74.5v-494h-100zM512 775h-87l120 170h130z" />
    <glyph glyph-name="nacute" unicode="&#x144;" horiz-adv-x="798" 
d="M80 0v505h92l-16 -160h13q20 77 87 124.5t176 47.5q137 0 214 -77.5t77 -216.5v-223h-92v204q0 114 -60 175t-170 61q-109 0 -169 -61t-60 -175v-204h-92zM412 585h-77l100 160h112z" />
    <glyph glyph-name="uni0145" unicode="&#x145;" horiz-adv-x="976" 
d="M95 0v700h162l528 -639h13q-9 40 -13 70.5t-4 74.5v494h100v-700h-162l-528 639h-13q9 -40 13 -70.5t4 -74.5v-494h-100zM556 -124q0 -46 -19.5 -85.5t-52 -63.5t-69.5 -24v70h8q41 0 69 21.5t34 56.5q-9 -4 -26 -4q-24 0 -39.5 14.5t-15.5 36.5q0 21 14.5 35.5
t36.5 14.5q60 0 60 -72z" />
    <glyph glyph-name="uni0146" unicode="&#x146;" horiz-adv-x="798" 
d="M80 0v505h92l-16 -160h13q20 77 87 124.5t176 47.5q137 0 214 -77.5t77 -216.5v-223h-92v204q0 114 -60 175t-170 61q-109 0 -169 -61t-60 -175v-204h-92zM460 -124q0 -46 -19.5 -85.5t-52 -63.5t-69.5 -24v70h8q41 0 69 21.5t34 56.5q-9 -4 -26 -4q-24 0 -39.5 14.5
t-15.5 36.5q0 21 14.5 35.5t36.5 14.5q60 0 60 -72z" />
    <glyph glyph-name="Ncaron" unicode="&#x147;" horiz-adv-x="976" 
d="M95 0v700h162l528 -639h13q-9 40 -13 70.5t-4 74.5v494h100v-700h-162l-528 639h-13q9 -40 13 -70.5t4 -74.5v-494h-100zM500 826l132 119h113l-200 -170h-91l-200 170h113z" />
    <glyph glyph-name="ncaron" unicode="&#x148;" horiz-adv-x="798" 
d="M80 0v505h92l-16 -160h13q20 77 87 124.5t176 47.5q137 0 214 -77.5t77 -216.5v-223h-92v204q0 114 -60 175t-170 61q-109 0 -169 -61t-60 -175v-204h-92zM401 637l115 108h100l-178 -160h-75l-178 160h100z" />
    <glyph glyph-name="Eng" unicode="&#x14a;" horiz-adv-x="976" 
d="M781 700h100v-735q0 -106 -67.5 -165.5t-200.5 -59.5q-66 0 -122 15v82q57 -14 110 -14q106 0 151 35.5t45 107.5v34h-78l-528 639h-13q9 -40 13 -70.5t4 -74.5v-494h-100v700h162l528 -639h13q-9 40 -13 70.5t-4 74.5v494z" />
    <glyph glyph-name="eng" unicode="&#x14b;" horiz-adv-x="798" 
d="M383 -212v76q41 -12 92 -12q80 0 118 36t38 109v207q0 114 -60 175t-170 61q-109 0 -169 -61t-60 -175v-204h-92v505h92l-16 -160h13q20 77 87 124.5t176 47.5q137 0 214 -77.5t77 -216.5v-231q0 -101 -61 -159t-171 -58q-59 0 -108 13z" />
    <glyph glyph-name="Omacron" unicode="&#x14c;" horiz-adv-x="1030" 
d="M268 35q-103 47 -155.5 129t-52.5 186t52.5 186t155.5 129t247 47t247 -47t155.5 -129t52.5 -186t-52.5 -186t-155.5 -129t-247 -47t-247 47zM706.5 112q79.5 36 120 98t40.5 140t-40.5 140t-120 98t-191.5 36t-191.5 -36t-120 -98t-40.5 -140t40.5 -140t120 -98
t191.5 -36t191.5 36zM723 828h-416v74h416v-74z" />
    <glyph glyph-name="omacron" unicode="&#x14d;" horiz-adv-x="784" 
d="M206 22.5q-77 34.5 -116.5 94.5t-39.5 135t39.5 135.5t116.5 95t186 34.5t186 -34.5t116.5 -95t39.5 -135.5t-39.5 -135t-116.5 -94.5t-186 -34.5t-186 34.5zM528.5 90q56.5 25 85 67t28.5 95t-28.5 95.5t-85 67.5t-136.5 25t-136.5 -25t-85 -67.5t-28.5 -95.5t28.5 -95
t85 -67t136.5 -25t136.5 25zM589 641h-394v67h394v-67z" />
    <glyph glyph-name="Obreve" unicode="&#x14e;" horiz-adv-x="1030" 
d="M268 35q-103 47 -155.5 129t-52.5 186t52.5 186t155.5 129t247 47t247 -47t155.5 -129t52.5 -186t-52.5 -186t-155.5 -129t-247 -47t-247 47zM706.5 112q79.5 36 120 98t40.5 140t-40.5 140t-120 98t-191.5 36t-191.5 -36t-120 -98t-40.5 -140t40.5 -140t120 -98
t191.5 -36t191.5 36zM334.5 818q-61.5 48 -70.5 132h85q7 -51 48 -79.5t117 -28.5q77 0 118 28.5t48 79.5h85q-9 -84 -70.5 -132t-180.5 -48q-118 0 -179.5 48z" />
    <glyph glyph-name="obreve" unicode="&#x14f;" horiz-adv-x="784" 
d="M206 22.5q-77 34.5 -116.5 94.5t-39.5 135t39.5 135.5t116.5 95t186 34.5t186 -34.5t116.5 -95t39.5 -135.5t-39.5 -135t-116.5 -94.5t-186 -34.5t-186 34.5zM528.5 90q56.5 25 85 67t28.5 95t-28.5 95.5t-85 67.5t-136.5 25t-136.5 -25t-85 -67.5t-28.5 -95.5t28.5 -95
t85 -67t136.5 -25t136.5 25zM235.5 626.5q-56.5 46.5 -63.5 123.5h78q5 -50 41.5 -77.5t100.5 -27.5t100.5 27.5t41.5 77.5h78q-7 -77 -63.5 -123.5t-156.5 -46.5t-156.5 46.5z" />
    <glyph glyph-name="Ohungarumlaut" unicode="&#x150;" horiz-adv-x="1030" 
d="M268 35q-103 47 -155.5 129t-52.5 186t52.5 186t155.5 129t247 47t247 -47t155.5 -129t52.5 -186t-52.5 -186t-155.5 -129t-247 -47t-247 47zM706.5 112q79.5 36 120 98t40.5 140t-40.5 140t-120 98t-191.5 36t-191.5 -36t-120 -98t-40.5 -140t40.5 -140t120 -98
t191.5 -36t191.5 36zM437 775h-72l100 170h112zM664 775h-72l100 170h112z" />
    <glyph glyph-name="ohungarumlaut" unicode="&#x151;" horiz-adv-x="784" 
d="M206 22.5q-77 34.5 -116.5 94.5t-39.5 135t39.5 135.5t116.5 95t186 34.5t186 -34.5t116.5 -95t39.5 -135.5t-39.5 -135t-116.5 -94.5t-186 -34.5t-186 34.5zM528.5 90q56.5 25 85 67t28.5 95t-28.5 95.5t-85 67.5t-136.5 25t-136.5 -25t-85 -67.5t-28.5 -95.5t28.5 -95
t85 -67t136.5 -25t136.5 25zM324 585h-62l80 160h97zM521 585h-62l80 160h97z" />
    <glyph glyph-name="OE" unicode="&#x152;" horiz-adv-x="1390" 
d="M1320 612h-537v-215h467v-83h-467v-226h537v-88h-838q-131 0 -226.5 46t-145.5 125.5t-50 178.5t50 178.5t145.5 125.5t226.5 46h838v-88zM683 88v524h-201q-99 0 -171 -34.5t-110 -94t-38 -133.5t38 -133.5t110 -94t171 -34.5h201z" />
    <glyph glyph-name="oe" unicode="&#x153;" horiz-adv-x="1319" 
d="M1267 216h-560q12 -69 74 -112.5t161 -43.5q92 0 144 29.5t77 70.5h92q-15 -42 -52.5 -81t-102.5 -65t-157 -26q-103 0 -174.5 37t-106.5 104q-35 -67 -107 -104t-178 -37q-102 0 -176 35t-112.5 95t-38.5 134q0 75 38.5 135t112.5 95t176 35q106 0 178.5 -38t107.5 -106
q34 69 105.5 106.5t176.5 37.5q101 0 174 -35t111.5 -95t38.5 -135q0 -18 -2 -36zM780 400.5q-61 -44.5 -73 -117.5h471q-12 73 -73.5 117.5t-162.5 44.5t-162 -44.5zM512 90q54 25 82 67.5t28 94.5q0 53 -28 95.5t-82 67.5t-130 25t-130 -25t-82 -67.5t-28 -95.5
q0 -52 28 -94.5t82 -67.5t130 -25t130 25z" />
    <glyph glyph-name="Racute" unicode="&#x154;" horiz-adv-x="893" 
d="M853 0h-120l-81 178q-15 33 -31.5 49.5t-42.5 23t-71 6.5h-309v-257h-103v700h451q85 0 146 -28t92.5 -76.5t31.5 -108.5q0 -81 -47.5 -136.5t-121.5 -64.5v-14q48 -3 74.5 -25t53.5 -81zM195 340h351q82 0 124.5 36.5t42.5 99.5t-42.5 99.5t-124.5 36.5h-351v-272z
M462 780h-77l100 160h112z" />
    <glyph glyph-name="racute" unicode="&#x155;" horiz-adv-x="711" 
d="M80 0v505h92l-14 -145h13q19 69 79.5 113t157.5 44q128 0 195.5 -65.5t67.5 -186.5v-18h-92v11q0 83 -53 131t-151 48q-97 0 -150 -53.5t-53 -156.5v-227h-92zM382 585h-77l100 160h112z" />
    <glyph glyph-name="uni0156" unicode="&#x156;" horiz-adv-x="893" 
d="M853 0h-120l-81 178q-15 33 -31.5 49.5t-42.5 23t-71 6.5h-309v-257h-103v700h451q85 0 146 -28t92.5 -76.5t31.5 -108.5q0 -81 -47.5 -136.5t-121.5 -64.5v-14q48 -3 74.5 -25t53.5 -81zM195 340h351q82 0 124.5 36.5t42.5 99.5t-42.5 99.5t-124.5 36.5h-351v-272z
M525 -124q0 -46 -19.5 -85.5t-52 -63.5t-69.5 -24v70h8q41 0 69 21.5t34 56.5q-9 -4 -26 -4q-24 0 -39.5 14.5t-15.5 36.5q0 21 14.5 35.5t36.5 14.5q60 0 60 -72z" />
    <glyph glyph-name="uni0157" unicode="&#x157;" horiz-adv-x="711" 
d="M80 0v505h92l-14 -145h13q19 69 79.5 113t157.5 44q128 0 195.5 -65.5t67.5 -186.5v-18h-92v11q0 83 -53 131t-151 48q-97 0 -150 -53.5t-53 -156.5v-227h-92zM184 -124q0 -46 -19.5 -85.5t-52 -63.5t-69.5 -24v70h8q41 0 69 21.5t34 56.5q-9 -4 -26 -4q-24 0 -39.5 14.5
t-15.5 36.5q0 21 14.5 35.5t36.5 14.5q60 0 60 -72z" />
    <glyph glyph-name="Rcaron" unicode="&#x158;" horiz-adv-x="893" 
d="M853 0h-120l-81 178q-15 33 -31.5 49.5t-42.5 23t-71 6.5h-309v-257h-103v700h451q85 0 146 -28t92.5 -76.5t31.5 -108.5q0 -81 -47.5 -136.5t-121.5 -64.5v-14q48 -3 74.5 -25t53.5 -81zM195 340h351q82 0 124.5 36.5t42.5 99.5t-42.5 99.5t-124.5 36.5h-351v-272z
M451 832l115 108h100l-178 -160h-75l-178 160h100z" />
    <glyph glyph-name="rcaron" unicode="&#x159;" horiz-adv-x="711" 
d="M80 0v505h92l-14 -145h13q19 69 79.5 113t157.5 44q128 0 195.5 -65.5t67.5 -186.5v-18h-92v11q0 83 -53 131t-151 48q-97 0 -150 -53.5t-53 -156.5v-227h-92zM371 637l115 108h100l-178 -160h-75l-178 160h100z" />
    <glyph glyph-name="Sacute" unicode="&#x15a;" horiz-adv-x="945" 
d="M166.5 56.5q-96.5 68.5 -96.5 187.5v16h103v-14q0 -175 302 -175q171 0 236.5 33t65.5 92q0 51 -41.5 77t-103 34.5t-167.5 13.5q-126 6 -203.5 18.5t-132 52t-54.5 119.5q0 201 400 201q209 0 304.5 -67t95.5 -181v-9h-103v9q0 76 -69.5 120.5t-227.5 44.5
q-165 0 -231 -33.5t-66 -88.5q0 -45 38.5 -67.5t96 -29.5t159.5 -12q130 -5 211.5 -18t139 -55.5t57.5 -128.5q0 -97 -92 -152.5t-313 -55.5q-212 0 -308.5 68.5zM487 775h-87l120 170h130z" />
    <glyph glyph-name="sacute" unicode="&#x15b;" horiz-adv-x="733" 
d="M128.5 36.5q-73.5 48.5 -73.5 131.5v12h92v-11q0 -49 51.5 -79t170.5 -30q125 0 173.5 23t48.5 61q0 32 -29.5 48.5t-73.5 22t-121 8.5q-98 4 -159.5 13t-104.5 39.5t-43 90.5q0 151 309 151q158 0 232 -50.5t77 -133.5h-92q-6 112 -217 112q-217 0 -217 -84
q0 -30 28 -44.5t70.5 -19t115.5 -7.5q102 -4 164.5 -13.5t107.5 -41t45 -95.5q0 -71 -70.5 -111.5t-243.5 -40.5q-167 0 -240.5 48.5zM380 585h-77l100 160h112z" />
    <glyph glyph-name="Scircumflex" unicode="&#x15c;" horiz-adv-x="945" 
d="M166.5 56.5q-96.5 68.5 -96.5 187.5v16h103v-14q0 -175 302 -175q171 0 236.5 33t65.5 92q0 51 -41.5 77t-103 34.5t-167.5 13.5q-126 6 -203.5 18.5t-132 52t-54.5 119.5q0 201 400 201q209 0 304.5 -67t95.5 -181v-9h-103v9q0 76 -69.5 120.5t-227.5 44.5
q-165 0 -231 -33.5t-66 -88.5q0 -45 38.5 -67.5t96 -29.5t159.5 -12q130 -5 211.5 -18t139 -55.5t57.5 -128.5q0 -97 -92 -152.5t-313 -55.5q-212 0 -308.5 68.5zM520 945l200 -170h-113l-132 119l-133 -119h-113l200 170h91z" />
    <glyph glyph-name="scircumflex" unicode="&#x15d;" horiz-adv-x="733" 
d="M128.5 36.5q-73.5 48.5 -73.5 131.5v12h92v-11q0 -49 51.5 -79t170.5 -30q125 0 173.5 23t48.5 61q0 32 -29.5 48.5t-73.5 22t-121 8.5q-98 4 -159.5 13t-104.5 39.5t-43 90.5q0 151 309 151q158 0 232 -50.5t77 -133.5h-92q-6 112 -217 112q-217 0 -217 -84
q0 -30 28 -44.5t70.5 -19t115.5 -7.5q102 -4 164.5 -13.5t107.5 -41t45 -95.5q0 -71 -70.5 -111.5t-243.5 -40.5q-167 0 -240.5 48.5zM406 745l178 -160h-100l-115 108l-116 -108h-100l178 160h75z" />
    <glyph glyph-name="Scedilla" unicode="&#x15e;" horiz-adv-x="945" 
d="M793 46q-87 -55 -295 -58l-31 -43h12q173 0 173 -90q0 -41 -38.5 -65.5t-125.5 -24.5q-84 0 -141 27v67q62 -27 141 -27q50 0 68.5 8t18.5 22q0 15 -20 23t-76 8h-77v50l32 46q-190 6 -277 74t-87 181v16h103v-14q0 -175 302 -175q171 0 236.5 33t65.5 92q0 51 -41.5 77
t-103 34.5t-167.5 13.5q-126 6 -203.5 18.5t-132 52t-54.5 119.5q0 201 400 201q209 0 304.5 -67t95.5 -181v-9h-103v9q0 76 -69.5 120.5t-227.5 44.5q-165 0 -231 -33.5t-66 -88.5q0 -45 38.5 -67.5t96 -29.5t159.5 -12q130 -5 211.5 -18t139 -55.5t57.5 -128.5
q0 -95 -87 -150z" />
    <glyph glyph-name="scedilla" unicode="&#x15f;" horiz-adv-x="733" 
d="M617 31q-66 -40 -227 -43l-31 -43h12q173 0 173 -90q0 -41 -38.5 -65.5t-125.5 -24.5q-84 0 -141 27v67q62 -27 141 -27q50 0 68.5 8t18.5 22q0 15 -20 23t-76 8h-77v50l32 46q-143 6 -207 53.5t-64 125.5v12h92v-11q0 -49 51.5 -79t170.5 -30q125 0 173.5 23t48.5 61
q0 32 -29.5 48.5t-73.5 22t-121 8.5q-98 4 -159.5 13t-104.5 39.5t-43 90.5q0 151 309 151q158 0 232 -50.5t77 -133.5h-92q-6 112 -217 112q-217 0 -217 -84q0 -30 28 -44.5t70.5 -19t115.5 -7.5q102 -4 164.5 -13.5t107.5 -41t45 -95.5q0 -69 -66 -109z" />
    <glyph glyph-name="Scaron" unicode="&#x160;" horiz-adv-x="945" 
d="M166.5 56.5q-96.5 68.5 -96.5 187.5v16h103v-14q0 -175 302 -175q171 0 236.5 33t65.5 92q0 51 -41.5 77t-103 34.5t-167.5 13.5q-126 6 -203.5 18.5t-132 52t-54.5 119.5q0 201 400 201q209 0 304.5 -67t95.5 -181v-9h-103v9q0 76 -69.5 120.5t-227.5 44.5
q-165 0 -231 -33.5t-66 -88.5q0 -45 38.5 -67.5t96 -29.5t159.5 -12q130 -5 211.5 -18t139 -55.5t57.5 -128.5q0 -97 -92 -152.5t-313 -55.5q-212 0 -308.5 68.5zM475 826l132 119h113l-200 -170h-91l-200 170h113z" />
    <glyph glyph-name="scaron" unicode="&#x161;" horiz-adv-x="733" 
d="M128.5 36.5q-73.5 48.5 -73.5 131.5v12h92v-11q0 -49 51.5 -79t170.5 -30q125 0 173.5 23t48.5 61q0 32 -29.5 48.5t-73.5 22t-121 8.5q-98 4 -159.5 13t-104.5 39.5t-43 90.5q0 151 309 151q158 0 232 -50.5t77 -133.5h-92q-6 112 -217 112q-217 0 -217 -84
q0 -30 28 -44.5t70.5 -19t115.5 -7.5q102 -4 164.5 -13.5t107.5 -41t45 -95.5q0 -71 -70.5 -111.5t-243.5 -40.5q-167 0 -240.5 48.5zM369 637l115 108h100l-178 -160h-75l-178 160h100z" />
    <glyph glyph-name="uni0162" unicode="&#x162;" horiz-adv-x="787" 
d="M445 0h-27l-39 -55h12q173 0 173 -90q0 -41 -38.5 -65.5t-125.5 -24.5q-84 0 -141 27v67q62 -27 141 -27q50 0 68.5 8t18.5 22q0 15 -20 23t-76 8h-77v50l40 57h-12v612h-317v88h737v-88h-317v-612z" />
    <glyph glyph-name="uni0163" unicode="&#x163;" horiz-adv-x="685" 
d="M563 231h92v-12q0 -106 -67 -166.5t-205 -64.5l-31 -43h12q173 0 173 -90q0 -41 -38.5 -65.5t-125.5 -24.5q-84 0 -141 27v67q62 -27 141 -27q50 0 68.5 8t18.5 22q0 15 -20 23t-76 8h-77v50l33 47q-120 9 -181.5 65t-61.5 144q0 79 47 134t112 79v11h-221v72h169
q28 0 38.5 10.5t10.5 38.5v81h77v-130h305v-72h-315q-64 -28 -97.5 -74t-33.5 -116q0 -80 49.5 -124t145.5 -44q199 0 199 156v10z" />
    <glyph glyph-name="Tcaron" unicode="&#x164;" horiz-adv-x="787" 
d="M445 0h-103v612h-317v88h737v-88h-317v-612zM394 826l132 119h113l-200 -170h-91l-200 170h113z" />
    <glyph glyph-name="tcaron" unicode="&#x165;" horiz-adv-x="685" 
d="M149.5 46q-72.5 58 -72.5 153q0 79 47 134t112 79v11h-221v72h169q28 0 38.5 10.5t10.5 38.5v81h77v-130h305v-72h-315q-64 -28 -97.5 -74t-33.5 -116q0 -80 49.5 -124t145.5 -44q199 0 199 156v10h92v-12q0 -110 -72 -170.5t-219 -60.5q-142 0 -214.5 58zM443 580h-62
l19 180h87z" />
    <glyph glyph-name="Tbar" unicode="&#x166;" horiz-adv-x="787" 
d="M762 700v-88h-317v-253h155v-78h-155v-281h-103v281h-155v78h155v253h-317v88h737z" />
    <glyph glyph-name="tbar" unicode="&#x167;" horiz-adv-x="705" 
d="M576 200h89v-7q0 -96 -65 -150.5t-195 -54.5q-127 0 -194 58t-67 157v62h-104v50h113v113h-128v67h82q28 0 38.5 10.5t10.5 38.5v81h77v-130h392v-67h-392v-113h367v-50h-367v-55q0 -70 43.5 -110t124.5 -40q89 0 132 35.5t43 98.5v6z" />
    <glyph glyph-name="Utilde" unicode="&#x168;" horiz-adv-x="940" 
d="M183 76.5q-98 88.5 -98 247.5v376h103v-373q0 -118 71 -182t211 -64t211 64t71 182v373h103v-376q0 -159 -98 -247.5t-287 -88.5t-287 88.5zM274 775q-30 45 -30 90q0 43 28 69t77 26q43 0 74.5 -18t71.5 -53q28 -24 46.5 -35.5t37.5 -11.5q18 0 28.5 11t10.5 32
q0 36 -27 75h74q30 -45 30 -90q0 -43 -28 -69t-77 -26q-43 0 -74.5 18t-71.5 53q-28 24 -46.5 35.5t-37.5 11.5q-18 0 -28.5 -11t-10.5 -32q0 -36 27 -75h-74z" />
    <glyph glyph-name="utilde" unicode="&#x169;" horiz-adv-x="783" 
d="M150.5 64.5q-75.5 76.5 -75.5 211.5v229h92v-210q0 -110 58 -170t164 -60t164 60t58 170v210h92v-505h-92l16 160h-13q-20 -78 -85 -125t-171 -47q-132 0 -207.5 76.5zM209 580q-14 18 -22 40t-8 43q0 40 27.5 66t73.5 26q41 0 70.5 -18t62.5 -50q24 -23 40.5 -34
t34.5 -11t28.5 11t10.5 31q0 17 -7.5 36t-19.5 35h69q14 -18 22 -40t8 -43q0 -40 -27.5 -66t-73.5 -26q-41 0 -70.5 18t-62.5 50q-24 23 -40.5 34t-34.5 11t-28.5 -11t-10.5 -31q0 -17 7.5 -36t19.5 -35h-69z" />
    <glyph glyph-name="Umacron" unicode="&#x16a;" horiz-adv-x="940" 
d="M183 76.5q-98 88.5 -98 247.5v376h103v-373q0 -118 71 -182t211 -64t211 64t71 182v373h103v-376q0 -159 -98 -247.5t-287 -88.5t-287 88.5zM678 828h-416v74h416v-74z" />
    <glyph glyph-name="umacron" unicode="&#x16b;" horiz-adv-x="783" 
d="M150.5 64.5q-75.5 76.5 -75.5 211.5v229h92v-210q0 -110 58 -170t164 -60t164 60t58 170v210h92v-505h-92l16 160h-13q-20 -78 -85 -125t-171 -47q-132 0 -207.5 76.5zM586 641h-394v67h394v-67z" />
    <glyph glyph-name="Ubreve" unicode="&#x16c;" horiz-adv-x="940" 
d="M183 76.5q-98 88.5 -98 247.5v376h103v-373q0 -118 71 -182t211 -64t211 64t71 182v373h103v-376q0 -159 -98 -247.5t-287 -88.5t-287 88.5zM289.5 818q-61.5 48 -70.5 132h85q7 -51 48 -79.5t117 -28.5q77 0 118 28.5t48 79.5h85q-9 -84 -70.5 -132t-180.5 -48
q-118 0 -179.5 48z" />
    <glyph glyph-name="ubreve" unicode="&#x16d;" horiz-adv-x="783" 
d="M150.5 64.5q-75.5 76.5 -75.5 211.5v229h92v-210q0 -110 58 -170t164 -60t164 60t58 170v210h92v-505h-92l16 160h-13q-20 -78 -85 -125t-171 -47q-132 0 -207.5 76.5zM232.5 626.5q-56.5 46.5 -63.5 123.5h78q5 -50 41.5 -77.5t100.5 -27.5t100.5 27.5t41.5 77.5h78
q-7 -77 -63.5 -123.5t-156.5 -46.5t-156.5 46.5z" />
    <glyph glyph-name="Uring" unicode="&#x16e;" horiz-adv-x="940" 
d="M183 76.5q-98 88.5 -98 247.5v376h103v-373q0 -118 71 -182t211 -64t211 64t71 182v373h103v-376q0 -159 -98 -247.5t-287 -88.5t-287 88.5zM351 784.5q-42 34.5 -42 87.5q0 54 42 88.5t119 34.5t118.5 -34.5t41.5 -88.5q0 -53 -41.5 -87.5t-118.5 -34.5t-119 34.5z
M536.5 830.5q21.5 15.5 21.5 41.5t-21.5 42t-66.5 16q-46 0 -67.5 -16t-21.5 -42t21.5 -41.5t67.5 -15.5q45 0 66.5 15.5z" />
    <glyph glyph-name="uring" unicode="&#x16f;" horiz-adv-x="783" 
d="M150.5 64.5q-75.5 76.5 -75.5 211.5v229h92v-210q0 -110 58 -170t164 -60t164 60t58 170v210h92v-505h-92l16 160h-13q-20 -78 -85 -125t-171 -47q-132 0 -207.5 76.5zM282 598q-39 33 -39 84t39 84.5t107 33.5t106.5 -33.5t38.5 -84.5t-38.5 -84t-106.5 -33t-107 33z
M447 642.5q20 15.5 20 39.5q0 25 -20 40.5t-58 15.5q-39 0 -59 -15.5t-20 -40.5q0 -24 20 -39.5t59 -15.5q38 0 58 15.5z" />
    <glyph glyph-name="Uhungarumlaut" unicode="&#x170;" horiz-adv-x="940" 
d="M183 76.5q-98 88.5 -98 247.5v376h103v-373q0 -118 71 -182t211 -64t211 64t71 182v373h103v-376q0 -159 -98 -247.5t-287 -88.5t-287 88.5zM392 775h-72l100 170h112zM619 775h-72l100 170h112z" />
    <glyph glyph-name="uhungarumlaut" unicode="&#x171;" horiz-adv-x="783" 
d="M150.5 64.5q-75.5 76.5 -75.5 211.5v229h92v-210q0 -110 58 -170t164 -60t164 60t58 170v210h92v-505h-92l16 160h-13q-20 -78 -85 -125t-171 -47q-132 0 -207.5 76.5zM321 585h-62l80 160h97zM518 585h-62l80 160h97z" />
    <glyph glyph-name="Uogonek" unicode="&#x172;" horiz-adv-x="940" 
d="M752 700h103v-376q0 -106 -44 -182t-130 -115q-75 -35 -104 -64.5t-29 -61.5q0 -28 18.5 -43.5t55.5 -15.5q31 0 64 12v-73q-35 -16 -86 -16q-68 0 -103.5 29t-35.5 77q0 36 21.5 67.5t64.5 53.5q-28 -4 -77 -4q-189 0 -287 88.5t-98 247.5v376h103v-373q0 -118 71 -182
t211 -64t211 64t71 182v373z" />
    <glyph glyph-name="uogonek" unicode="&#x173;" horiz-adv-x="783" 
d="M703 0q-83 -19 -115.5 -45t-32.5 -57q0 -26 19.5 -41t61.5 -15q34 0 67 12v-73q-35 -16 -89 -16q-73 0 -109.5 29t-36.5 77q0 42 35 79.5t109 59.5l15 150h-13q-20 -78 -85 -125t-171 -47q-132 0 -207.5 76.5t-75.5 211.5v229h92v-210q0 -110 58 -170t164 -60t164 60
t58 170v210h92v-505z" />
    <glyph glyph-name="Wcircumflex" unicode="&#x174;" horiz-adv-x="1187" 
d="M281 0l-241 700h110l180 -541q19 -59 19 -95v-3h13v3q0 45 19 95l153 411h119l153 -411q19 -50 19 -95v-3h13v3q0 36 19 95l180 541h110l-241 -700h-132l-150 395q-12 32 -18 57.5t-6 54.5v2h-13v-2q0 -29 -6 -54.5t-18 -57.5l-150 -395h-132zM639 945l200 -170h-113
l-132 119l-133 -119h-113l200 170h91z" />
    <glyph glyph-name="wcircumflex" unicode="&#x175;" horiz-adv-x="1011" 
d="M224 0l-199 505h99l143 -376q15 -39 15 -74v-5h13v5q0 22 2 39.5t9 34.5l152 376h95l152 -376q7 -17 9 -34.5t2 -39.5v-5h13v5q0 35 15 74l143 376h99l-199 -505h-114l-147 359q-14 33 -14 92v4h-13v-4q0 -59 -14 -92l-147 -359h-114zM543 745l178 -160h-100l-115 108
l-116 -108h-100l178 160h75z" />
    <glyph glyph-name="Ycircumflex" unicode="&#x176;" horiz-adv-x="835" 
d="M366 0v234l-346 466h119l231 -320q21 -29 31 -48t10 -34v-7h13v7q0 15 10 34t31 48l231 320h119l-346 -466v-234h-103zM463 945l200 -170h-113l-132 119l-133 -119h-113l200 170h91z" />
    <glyph glyph-name="ycircumflex" unicode="&#x177;" horiz-adv-x="701" 
d="M573 505h108l-296 -540q-54 -99 -108 -139.5t-134 -40.5q-44 0 -83 14v77q36 -14 73 -14q55 0 89 23.5t67 81.5l13 22l-282 516h108l193 -373q22 -43 22 -72v-1h13v1q0 31 21 72zM387 745l178 -160h-100l-115 108l-116 -108h-100l178 160h75z" />
    <glyph glyph-name="Ydieresis" unicode="&#x178;" horiz-adv-x="835" 
d="M366 0v234l-346 466h119l231 -320q21 -29 31 -48t10 -34v-7h13v7q0 15 10 34t31 48l231 320h119l-346 -466v-234h-103zM227 809.5q-18 15.5 -18 40.5q0 24 18 39.5t49 15.5t49 -15.5t18 -39.5q0 -25 -18 -40.5t-49 -15.5t-49 15.5zM511 809.5q-18 15.5 -18 40.5
q0 24 18 39.5t49 15.5t49 -15.5t18 -39.5q0 -25 -18 -40.5t-49 -15.5t-49 15.5z" />
    <glyph glyph-name="Zacute" unicode="&#x179;" horiz-adv-x="865" 
d="M795 0h-720v81l563 518v13h-553v88h700v-81l-563 -518v-13h573v-88zM447 775h-87l120 170h130z" />
    <glyph glyph-name="zacute" unicode="&#x17a;" horiz-adv-x="701" 
d="M646 0h-586v70l432 345v13h-422v77h566v-70l-432 -345v-13h442v-77zM364 585h-77l100 160h112z" />
    <glyph glyph-name="Zdotaccent" unicode="&#x17b;" horiz-adv-x="865" 
d="M795 0h-720v81l563 518v13h-553v88h700v-81l-563 -518v-13h573v-88zM377.5 807q-20.5 18 -20.5 46q0 27 20.5 45t56.5 18t57 -18t21 -45q0 -28 -21 -46t-57 -18t-56.5 18z" />
    <glyph glyph-name="zdotaccent" unicode="&#x17c;" horiz-adv-x="701" 
d="M646 0h-586v70l432 345v13h-422v77h566v-70l-432 -345v-13h442v-77zM306.5 621.5q-17.5 15.5 -17.5 40.5t17.5 40.5t46.5 15.5t46.5 -15.5t17.5 -40.5t-17.5 -40.5t-46.5 -15.5t-46.5 15.5z" />
    <glyph glyph-name="Zcaron" unicode="&#x17d;" horiz-adv-x="865" 
d="M795 0h-720v81l563 518v13h-553v88h700v-81l-563 -518v-13h573v-88zM435 826l132 119h113l-200 -170h-91l-200 170h113z" />
    <glyph glyph-name="zcaron" unicode="&#x17e;" horiz-adv-x="701" 
d="M646 0h-586v70l432 345v13h-422v77h566v-70l-432 -345v-13h442v-77zM353 637l115 108h100l-178 -160h-75l-178 160h100z" />
    <glyph glyph-name="uni018F" unicode="&#x18f;" horiz-adv-x="1030" 
d="M762 665q103 -47 155.5 -129t52.5 -186t-52.5 -186t-155.5 -129t-247 -47t-247 47t-155.5 129t-52.5 186q0 21 3 39h804q-10 70 -53.5 124t-119.5 85t-179 31q-146 0 -228 -52.5t-110 -128.5h-103q19 69 70.5 128.5t144.5 97.5t226 38q144 0 247 -47zM694 102
q76 31 119.5 85t53.5 124h-704q10 -70 53.5 -124t119.5 -85t179 -31t179 31z" />
    <glyph glyph-name="florin" unicode="&#x192;" horiz-adv-x="816" 
d="M484 464l-18 -88h233l-18 -88h-234l-51 -244q-24 -114 -91 -170t-181 -56q-66 0 -124 22l17 82q41 -16 96 -16q161 0 194 160l47 222h-181l19 88h180l23 110q24 114 91 170t181 56q66 0 124 -22l-17 -82q-41 16 -96 16q-161 0 -194 -160z" />
    <glyph glyph-name="uni01F4" unicode="&#x1f4;" horiz-adv-x="1008" 
d="M434 271v78h499v-349h-93l20 180h-13q-19 -45 -61.5 -88t-117.5 -73.5t-181 -30.5q-131 0 -228 47.5t-148 129.5t-51 185t52 185.5t152.5 129.5t240.5 47q132 0 226.5 -38t149 -103t72.5 -146h-103q-26 88 -112.5 143.5t-232.5 55.5q-107 0 -184.5 -36t-117.5 -98
t-40 -140q0 -80 40 -143.5t117.5 -99.5t185.5 -36q94 0 162.5 29.5t108.5 75t55 95.5h-398zM517 775h-87l120 170h130z" />
    <glyph glyph-name="uni01F5" unicode="&#x1f5;" horiz-adv-x="769" 
d="M107 -182q-77 43 -77 122q0 105 128 133v11h-18q-34 0 -52 15t-18 41t18 41t52 15h39v11q-50 14 -79.5 48t-29.5 86q0 84 73.5 130t247.5 46h195q22 0 33 8.5t11 22.5q0 11 -6.5 22.5t-22.5 26.5h90q28 -21 28 -51q0 -25 -18.5 -39.5t-55.5 -14.5h-53v-11
q57 -17 87 -52.5t30 -87.5q0 -166 -312 -166h-206q-20 0 -32 -10t-12 -26q0 -15 12 -25t32 -10h227q173 0 244.5 -43t71.5 -120q0 -80 -77 -123t-275 -43t-275 43zM569 264.5q51 27.5 51 76.5t-51 76.5t-179 27.5q-129 0 -180 -27.5t-51 -76.5t51 -76.5t180 -27.5
q128 0 179 27.5zM544.5 -140.5q57.5 12.5 79 33.5t21.5 51q0 31 -21 52t-79 33.5t-163 12.5t-163 -12.5t-79 -33.5t-21 -52q0 -30 21.5 -51t79 -33.5t162.5 -12.5t162.5 12.5zM397 585h-77l100 160h112z" />
    <glyph glyph-name="uni0218" unicode="&#x218;" horiz-adv-x="945" 
d="M166.5 56.5q-96.5 68.5 -96.5 187.5v16h103v-14q0 -175 302 -175q171 0 236.5 33t65.5 92q0 51 -41.5 77t-103 34.5t-167.5 13.5q-126 6 -203.5 18.5t-132 52t-54.5 119.5q0 201 400 201q209 0 304.5 -67t95.5 -181v-9h-103v9q0 76 -69.5 120.5t-227.5 44.5
q-165 0 -231 -33.5t-66 -88.5q0 -45 38.5 -67.5t96 -29.5t159.5 -12q130 -5 211.5 -18t139 -55.5t57.5 -128.5q0 -97 -92 -152.5t-313 -55.5q-212 0 -308.5 68.5zM540 -124q0 -46 -19.5 -85.5t-52 -63.5t-69.5 -24v70h8q41 0 69 21.5t34 56.5q-9 -4 -26 -4q-24 0 -39.5 14.5
t-15.5 36.5q0 21 14.5 35.5t36.5 14.5q60 0 60 -72z" />
    <glyph glyph-name="uni0219" unicode="&#x219;" horiz-adv-x="733" 
d="M128.5 36.5q-73.5 48.5 -73.5 131.5v12h92v-11q0 -49 51.5 -79t170.5 -30q125 0 173.5 23t48.5 61q0 32 -29.5 48.5t-73.5 22t-121 8.5q-98 4 -159.5 13t-104.5 39.5t-43 90.5q0 151 309 151q158 0 232 -50.5t77 -133.5h-92q-6 112 -217 112q-217 0 -217 -84
q0 -30 28 -44.5t70.5 -19t115.5 -7.5q102 -4 164.5 -13.5t107.5 -41t45 -95.5q0 -71 -70.5 -111.5t-243.5 -40.5q-167 0 -240.5 48.5zM432 -124q0 -46 -19.5 -85.5t-52 -63.5t-69.5 -24v70h8q41 0 69 21.5t34 56.5q-9 -4 -26 -4q-24 0 -39.5 14.5t-15.5 36.5q0 21 14.5 35.5
t36.5 14.5q60 0 60 -72z" />
    <glyph glyph-name="uni021A" unicode="&#x21a;" horiz-adv-x="787" 
d="M445 0h-103v612h-317v88h737v-88h-317v-612zM452 -124q0 -46 -19.5 -85.5t-52 -63.5t-69.5 -24v70h8q41 0 69 21.5t34 56.5q-9 -4 -26 -4q-24 0 -39.5 14.5t-15.5 36.5q0 21 14.5 35.5t36.5 14.5q60 0 60 -72z" />
    <glyph glyph-name="uni021B" unicode="&#x21b;" horiz-adv-x="685" 
d="M149.5 46q-72.5 58 -72.5 153q0 79 47 134t112 79v11h-221v72h169q28 0 38.5 10.5t10.5 38.5v81h77v-130h305v-72h-315q-64 -28 -97.5 -74t-33.5 -116q0 -80 49.5 -124t145.5 -44q199 0 199 156v10h92v-12q0 -110 -72 -170.5t-219 -60.5q-142 0 -214.5 58zM425 -124
q0 -46 -19.5 -85.5t-52 -63.5t-69.5 -24v70h8q41 0 69 21.5t34 56.5q-9 -4 -26 -4q-24 0 -39.5 14.5t-15.5 36.5q0 21 14.5 35.5t36.5 14.5q60 0 60 -72z" />
    <glyph glyph-name="uni0232" unicode="&#x232;" horiz-adv-x="835" 
d="M366 0v234l-346 466h119l231 -320q21 -29 31 -48t10 -34v-7h13v7q0 15 10 34t31 48l231 320h119l-346 -466v-234h-103zM626 828h-416v74h416v-74z" />
    <glyph glyph-name="uni0233" unicode="&#x233;" horiz-adv-x="701" 
d="M573 505h108l-296 -540q-54 -99 -108 -139.5t-134 -40.5q-44 0 -83 14v77q36 -14 73 -14q55 0 89 23.5t67 81.5l13 22l-282 516h108l193 -373q22 -43 22 -72v-1h13v1q0 31 21 72zM547 641h-394v67h394v-67z" />
    <glyph glyph-name="uni0237" unicode="&#x237;" horiz-adv-x="335" 
d="M-23 -212q-22 3 -47 11v77q42 -14 86 -14q81 0 118 31.5t37 94.5v372q0 40 -17 57.5t-57 17.5q-19 0 -34 -3.5t-35 -10.5v79q44 17 97 17q70 0 102.5 -31t32.5 -95v-404q0 -202 -229 -202q-32 0 -54 3z" />
    <glyph glyph-name="uni0244" unicode="&#x244;" horiz-adv-x="1000" 
d="M1010 460v-78h-125v-58q0 -159 -98 -247.5t-287 -88.5t-287 88.5t-98 247.5v58h-125v78h125v240h103v-240h564v240h103v-240h125zM782 382h-564v-55q0 -118 71 -182t211 -64t211 64t71 182v55z" />
    <glyph glyph-name="uni0259" unicode="&#x259;" horiz-adv-x="774" 
d="M570 482.5q76 -34.5 115 -94.5t39 -135t-39 -135t-115 -95t-183 -35t-183 35t-115 95t-39 135q0 18 2 36h580q-13 70 -76.5 113t-169.5 43q-97 0 -151 -29.5t-79 -70.5h-92q25 69 104 120.5t220 51.5q106 0 182 -34.5zM557.5 104.5q63.5 44.5 75.5 117.5h-492
q12 -73 75.5 -117.5t170.5 -44.5t170.5 44.5z" />
    <glyph glyph-name="uni0289" unicode="&#x289;" horiz-adv-x="833" 
d="M833 347v-62h-105v-285h-92l16 160h-13q-20 -78 -85 -125t-171 -47q-132 0 -207.5 76.5t-75.5 211.5v9h-105v62h105v158h92v-158h444v158h92v-158h105zM575 122q58 57 61 163h-444q3 -106 61 -163t161 -57t161 57z" />
    <glyph glyph-name="uni02BC" unicode="&#x2bc;" horiz-adv-x="201" 
d="M171 658q0 -53 -19 -96t-51.5 -67.5t-70.5 -24.5v70h8q43 0 71 24.5t33 68.5q-11 -4 -27 -4q-24 0 -39.5 14.5t-15.5 36.5q0 21 14.5 35.5t36.5 14.5q60 0 60 -72z" />
    <glyph glyph-name="circumflex" unicode="&#x2c6;" horiz-adv-x="491" 
d="M283 745l178 -160h-100l-115 108l-116 -108h-100l178 160h75z" />
    <glyph glyph-name="caron" unicode="&#x2c7;" horiz-adv-x="491" 
d="M246 637l115 108h100l-178 -160h-75l-178 160h100z" />
    <glyph glyph-name="breve" unicode="&#x2d8;" horiz-adv-x="500" 
d="M93.5 626.5q-56.5 46.5 -63.5 123.5h78q5 -50 41.5 -77.5t100.5 -27.5t100.5 27.5t41.5 77.5h78q-7 -77 -63.5 -123.5t-156.5 -46.5t-156.5 46.5z" />
    <glyph glyph-name="dotaccent" unicode="&#x2d9;" horiz-adv-x="188" 
d="M47.5 621.5q-17.5 15.5 -17.5 40.5t17.5 40.5t46.5 15.5t46.5 -15.5t17.5 -40.5t-17.5 -40.5t-46.5 -15.5t-46.5 15.5z" />
    <glyph glyph-name="ring" unicode="&#x2da;" horiz-adv-x="351" 
d="M69 598q-39 33 -39 84t39 84.5t107 33.5t106.5 -33.5t38.5 -84.5t-38.5 -84t-106.5 -33t-107 33zM234 642.5q20 15.5 20 39.5q0 25 -20 40.5t-58 15.5q-39 0 -59 -15.5t-20 -40.5q0 -24 20 -39.5t59 -15.5q38 0 58 15.5z" />
    <glyph glyph-name="ogonek" unicode="&#x2db;" horiz-adv-x="285" 
d="M65.5 -206q-35.5 29 -35.5 77q0 47 36 85t111 56l78 -12q-76 -20 -107 -45.5t-31 -56.5q0 -26 18.5 -41t55.5 -15q31 0 64 12v-73q-35 -16 -86 -16q-68 0 -103.5 29z" />
    <glyph glyph-name="tilde" unicode="&#x2dc;" horiz-adv-x="480" 
d="M60 580q-14 18 -22 40t-8 43q0 40 27.5 66t73.5 26q41 0 70.5 -18t62.5 -50q24 -23 40.5 -34t34.5 -11t28.5 11t10.5 31q0 17 -7.5 36t-19.5 35h69q14 -18 22 -40t8 -43q0 -40 -27.5 -66t-73.5 -26q-41 0 -70.5 18t-62.5 50q-24 23 -40.5 34t-34.5 11t-28.5 -11
t-10.5 -31q0 -17 7.5 -36t19.5 -35h-69z" />
    <glyph glyph-name="hungarumlaut" unicode="&#x2dd;" horiz-adv-x="434" 
d="M92 585h-62l80 160h97zM289 585h-62l80 160h97z" />
    <glyph glyph-name="gravecomb" unicode="&#x300;" 
d="M-30 585h-77l-135 160h112z" />
    <glyph glyph-name="acutecomb" unicode="&#x301;" 
d="M-165 585h-77l100 160h112z" />
    <glyph glyph-name="uni0302" unicode="&#x302;" 
d="M-208 745l178 -160h-100l-115 108l-116 -108h-100l178 160h75z" />
    <glyph glyph-name="tildecomb" unicode="&#x303;" 
d="M-420 580q-14 18 -22 40t-8 43q0 40 27.5 66t73.5 26q41 0 70.5 -18t62.5 -50q24 -23 40.5 -34t34.5 -11t28.5 11t10.5 31q0 17 -7.5 36t-19.5 35h69q14 -18 22 -40t8 -43q0 -40 -27.5 -66t-73.5 -26q-41 0 -70.5 18t-62.5 50q-24 23 -40.5 34t-34.5 11t-28.5 -11
t-10.5 -31q0 -17 7.5 -36t19.5 -35h-69z" />
    <glyph glyph-name="uni0304" unicode="&#x304;" 
d="M-30 641h-394v67h394v-67z" />
    <glyph glyph-name="uni0306" unicode="&#x306;" 
d="M-406.5 626.5q-56.5 46.5 -63.5 123.5h78q5 -50 41.5 -77.5t100.5 -27.5t100.5 27.5t41.5 77.5h78q-7 -77 -63.5 -123.5t-156.5 -46.5t-156.5 46.5z" />
    <glyph glyph-name="uni0307" unicode="&#x307;" 
d="M-140.5 621.5q-17.5 15.5 -17.5 40.5t17.5 40.5t46.5 15.5t46.5 -15.5t17.5 -40.5t-17.5 -40.5t-46.5 -15.5t-46.5 15.5z" />
    <glyph glyph-name="uni0308" unicode="&#x308;" 
d="M-369 627.5q-15 13.5 -15 34.5t15 34.5t41 13.5t41 -13.5t15 -34.5t-15 -34.5t-41 -13.5t-41 13.5zM-127 627.5q-15 13.5 -15 34.5t15 34.5t41 13.5t41 -13.5t15 -34.5t-15 -34.5t-41 -13.5t-41 13.5z" />
    <glyph glyph-name="uni030A" unicode="&#x30a;" 
d="M-282 598q-39 33 -39 84t39 84.5t107 33.5t106.5 -33.5t38.5 -84.5t-38.5 -84t-106.5 -33t-107 33zM-117 642.5q20 15.5 20 39.5q0 25 -20 40.5t-58 15.5q-39 0 -59 -15.5t-20 -40.5q0 -24 20 -39.5t59 -15.5q38 0 58 15.5z" />
    <glyph glyph-name="uni030B" unicode="&#x30b;" 
d="M-342 585h-62l80 160h97zM-145 585h-62l80 160h97z" />
    <glyph glyph-name="uni030C" unicode="&#x30c;" 
d="M-245 637l115 108h100l-178 -160h-75l-178 160h100z" />
    <glyph glyph-name="uni0312" unicode="&#x312;" 
d="M-151.5 746.5q19.5 39.5 52 63.5t69.5 24v-70h-8q-41 0 -69 -21.5t-34 -56.5q9 4 26 4q24 0 39.5 -14.5t15.5 -36.5q0 -21 -14.5 -35.5t-36.5 -14.5q-60 0 -60 72q0 46 19.5 85.5z" />
    <glyph glyph-name="uni0326" unicode="&#x326;" 
d="M-30 -124q0 -46 -19.5 -85.5t-52 -63.5t-69.5 -24v70h8q41 0 69 21.5t34 56.5q-9 -4 -26 -4q-24 0 -39.5 14.5t-15.5 36.5q0 21 14.5 35.5t36.5 14.5q60 0 60 -72z" />
    <glyph glyph-name="uni0327" unicode="&#x327;" 
d="M-203 -55q173 0 173 -90q0 -41 -38.5 -65.5t-125.5 -24.5q-84 0 -141 27v67q61 -27 141 -27q50 0 68.5 8t18.5 22q0 15 -20 23t-76 8h-77v50l48 68h64l-47 -66h12z" />
    <glyph glyph-name="uni0328" unicode="&#x328;" 
d="M-219.5 -206q-35.5 29 -35.5 77q0 47 36 85t111 56l78 -12q-76 -20 -107 -45.5t-31 -56.5q0 -26 18.5 -41t55.5 -15q31 0 64 12v-73q-35 -16 -86 -16q-68 0 -103.5 29z" />
    <glyph glyph-name="uni0401" unicode="&#x401;" horiz-adv-x="835" 
d="M765 700v-88h-567v-215h497v-83h-497v-226h567v-88h-670v700h670zM239 809.5q-18 15.5 -18 40.5q0 24 18 39.5t49 15.5t49 -15.5t18 -39.5q0 -25 -18 -40.5t-49 -15.5t-49 15.5zM523 809.5q-18 15.5 -18 40.5q0 24 18 39.5t49 15.5t49 -15.5t18 -39.5q0 -25 -18 -40.5
t-49 -15.5t-49 15.5z" />
    <glyph glyph-name="uni0402" unicode="&#x402;" horiz-adv-x="1107" 
d="M899.5 402.5q80.5 -37.5 121.5 -105t41 -154.5q0 -88 -41.5 -155.5t-124 -105t-200.5 -37.5q-95 0 -161 14v86q63 -12 147 -12q140 0 208.5 56t68.5 154t-68.5 153.5t-208.5 55.5q-92 0 -156 -19.5t-111 -58.5v-274h-103v612h-277v88h737v-88h-357v-243q54 35 124 53
t167 18q113 0 193.5 -37.5z" />
    <glyph glyph-name="uni0403" unicode="&#x403;" horiz-adv-x="765" 
d="M198 0h-103v700h615v-88h-512v-612zM414 780h-77l100 160h112z" />
    <glyph glyph-name="uni0404" unicode="&#x404;" horiz-adv-x="1013" 
d="M686 102.5q73 26.5 114 69.5t55 93h103q-17 -78 -72 -140.5t-150 -99.5t-227 -37q-142 0 -243 47t-153.5 129.5t-52.5 185.5t52.5 185.5t153.5 129.5t243 47q132 0 227 -37t150 -99.5t72 -140.5h-103q-14 50 -55 93t-114 69.5t-177 26.5q-99 0 -172.5 -30t-116.5 -82
t-54 -120h455v-83h-455q10 -68 53 -120.5t117 -82.5t173 -30q104 0 177 26.5z" />
    <glyph glyph-name="uni0405" unicode="&#x405;" horiz-adv-x="945" 
d="M166.5 56.5q-96.5 68.5 -96.5 187.5v16h103v-14q0 -175 302 -175q171 0 236.5 33t65.5 92q0 51 -41.5 77t-103 34.5t-167.5 13.5q-126 6 -203.5 18.5t-132 52t-54.5 119.5q0 201 400 201q209 0 304.5 -67t95.5 -181v-9h-103v9q0 76 -69.5 120.5t-227.5 44.5
q-165 0 -231 -33.5t-66 -88.5q0 -45 38.5 -67.5t96 -29.5t159.5 -12q130 -5 211.5 -18t139 -55.5t57.5 -128.5q0 -97 -92 -152.5t-313 -55.5q-212 0 -308.5 68.5z" />
    <glyph glyph-name="uni0406" unicode="&#x406;" horiz-adv-x="731" 
d="M661 0h-591v88h244v524h-244v88h591v-88h-244v-524h244v-88z" />
    <glyph glyph-name="uni0407" unicode="&#x407;" horiz-adv-x="731" 
d="M661 0h-591v88h244v524h-244v88h591v-88h-244v-524h244v-88zM204 822.5q-15 13.5 -15 34.5t15 34.5t41 13.5t41 -13.5t15 -34.5t-15 -34.5t-41 -13.5t-41 13.5zM446 822.5q-15 13.5 -15 34.5t15 34.5t41 13.5t41 -13.5t15 -34.5t-15 -34.5t-41 -13.5t-41 13.5z" />
    <glyph glyph-name="uni0408" unicode="&#x408;" horiz-adv-x="813" 
d="M135.5 64q-85.5 76 -85.5 214v22h103v-19q0 -99 58.5 -152t177.5 -53t177.5 53t58.5 152v331h-475v88h578v-422q0 -138 -85.5 -214t-253.5 -76t-253.5 76z" />
    <glyph glyph-name="uni0409" unicode="&#x409;" horiz-adv-x="1509" 
d="M1190 436q133 0 201 -58.5t68 -159.5t-68 -159.5t-201 -58.5h-427v612h-437l-47 -428q-10 -96 -57.5 -146t-128.5 -50q-38 0 -68 11v90q22 -8 47 -8q49 0 74.5 27t32.5 92l56 500h631v-264h324zM1190 83q81 0 123.5 36.5t42.5 98.5t-42.5 98.5t-123.5 36.5h-327v-270h327
z" />
    <glyph glyph-name="uni040A" unicode="&#x40a;" horiz-adv-x="1489" 
d="M1170 436q133 0 201 -58.5t68 -159.5t-68 -159.5t-201 -58.5h-427v348h-545v-348h-103v700h103v-264h545v264h103v-264h324zM1170 83q81 0 123.5 36.5t42.5 98.5t-42.5 98.5t-123.5 36.5h-327v-270h327z" />
    <glyph glyph-name="uni040B" unicode="&#x40b;" horiz-adv-x="1107" 
d="M967.5 363q84.5 -77 84.5 -228v-135h-103v135q0 111 -62 164t-205 53q-92 0 -156 -19.5t-111 -58.5v-274h-103v612h-277v88h737v-88h-357v-243q54 35 124 53t167 18q177 0 261.5 -77z" />
    <glyph glyph-name="uni040C" unicode="&#x40c;" horiz-adv-x="829" 
d="M331 362l493 -362h-158l-468 349v-349h-103v700h103v-329l453 329h153zM439 780h-77l100 160h112z" />
    <glyph glyph-name="uni040E" unicode="&#x40e;" horiz-adv-x="820" 
d="M686 700h119l-350 -555q-51 -81 -106 -119t-138 -38q-47 0 -87 13v90q40 -10 75 -10q58 0 95.5 20t65.5 65l12 20l-352 514h121l238 -360q20 -31 30.5 -52.5t10.5 -37.5v-6h13v6q0 17 9.5 38.5t27.5 51.5zM242 818q-62 48 -71 132h85q7 -52 48.5 -81t121.5 -29t122 29
t49 81h85q-9 -85 -71.5 -132.5t-184.5 -47.5t-184 48z" />
    <glyph glyph-name="uni040F" unicode="&#x40f;" horiz-adv-x="956" 
d="M758 700h103v-700h-333v-175h-100v175h-333v700h103v-612h560v612z" />
    <glyph glyph-name="uni0410" unicode="&#x410;" horiz-adv-x="895" 
d="M870 0h-109l-71 141h-485l-71 -141h-109l363 700h119zM247 224h401l-161 317q-33 66 -33 97v1h-13v-1q0 -31 -33 -97z" />
    <glyph glyph-name="uni0411" unicode="&#x411;" horiz-adv-x="890" 
d="M581 421q124 0 189 -57t65 -154t-65 -153.5t-189 -56.5h-486v700h700v-88h-600v-191h386zM581 88q73 0 112 34t39 91t-39 91t-112 34h-383v-250h383z" />
    <glyph glyph-name="uni0412" unicode="&#x412;" horiz-adv-x="916" 
d="M703 354q76 -6 119.5 -50t43.5 -116q0 -188 -255 -188h-516v700h516q114 0 172 -47.5t58 -128.5q0 -64 -38 -105.5t-100 -49.5v-15zM198 612v-216h408q64 0 98 29.5t34 78.5q0 50 -34 79t-98 29h-408zM616 88q75 0 111 29.5t36 82.5q0 54 -36 83.5t-111 29.5h-418v-225
h418z" />
    <glyph glyph-name="uni0413" unicode="&#x413;" horiz-adv-x="765" 
d="M198 0h-103v700h615v-88h-512v-612z" />
    <glyph glyph-name="uni0414" unicode="&#x414;" horiz-adv-x="983" 
d="M843 88h110v-263h-100v175h-733v-175h-100v263h42q41 0 66.5 28t32.5 92l56 492h626v-612zM743 88v524h-435l-44 -395q-12 -102 -56 -129h535z" />
    <glyph glyph-name="uni0415" unicode="&#x415;" horiz-adv-x="835" 
d="M765 700v-88h-567v-215h497v-83h-497v-226h567v-88h-670v700h670z" />
    <glyph glyph-name="uni0416" unicode="&#x416;" horiz-adv-x="1210" 
d="M774 362l421 -362h-142l-398 347v-347h-100v347l-398 -347h-142l421 362l-401 338h138l382 -327v327h100v-327l382 327h138z" />
    <glyph glyph-name="uni0417" unicode="&#x417;" horiz-adv-x="860" 
d="M642 352q79 -8 123.5 -53t44.5 -110q0 -92 -88.5 -146.5t-293.5 -54.5q-198 0 -290.5 63t-92.5 166v18h103v-18q0 -37 28 -69t91 -52t161 -20q279 0 279 122q0 51 -53.5 83t-176.5 32h-191v83h191q116 0 168 31.5t52 79.5q0 50 -62 83.5t-207 33.5q-94 0 -154.5 -20
t-88 -52t-27.5 -69v-13h-103v16q0 64 38.5 115t122 81t212.5 30q195 0 283.5 -53.5t88.5 -135.5q0 -62 -41.5 -104.5t-116.5 -50.5v-16z" />
    <glyph glyph-name="uni0418" unicode="&#x418;" horiz-adv-x="976" 
d="M95 0v700h100v-494q0 -44 -4 -74.5t-13 -70.5h13l528 639h162v-700h-100v494q0 44 4 74.5t13 70.5h-13l-528 -639h-162z" />
    <glyph glyph-name="uni0419" unicode="&#x419;" horiz-adv-x="976" 
d="M95 0v700h100v-494q0 -44 -4 -74.5t-13 -70.5h13l528 639h162v-700h-100v494q0 44 4 74.5t13 70.5h-13l-528 -639h-162zM315 818q-62 48 -71 132h85q7 -52 48.5 -81t121.5 -29t122 29t49 81h85q-9 -85 -71.5 -132.5t-184.5 -47.5t-184 48z" />
    <glyph glyph-name="uni041A" unicode="&#x41a;" horiz-adv-x="829" 
d="M331 362l493 -362h-158l-468 349v-349h-103v700h103v-329l453 329h153z" />
    <glyph glyph-name="uni041B" unicode="&#x41b;" horiz-adv-x="986" 
d="M25 -1v90q22 -8 47 -8q49 0 74.5 27t32.5 92l56 500h656v-700h-103v612h-462l-47 -428q-10 -96 -57.5 -146t-128.5 -50q-38 0 -68 11z" />
    <glyph glyph-name="uni041C" unicode="&#x41c;" horiz-adv-x="1119" 
d="M95 0v700h165l268 -445q25 -42 25 -59v-5h13v5q0 17 25 59l268 445h165v-700h-100v486q0 49 3.5 81t11.5 72h-13l-310 -509h-113l-310 509h-13q8 -40 11.5 -72t3.5 -81v-486h-100z" />
    <glyph glyph-name="uni041D" unicode="&#x41d;" horiz-adv-x="966" 
d="M768 405v295h103v-700h-103v317h-570v-317h-103v700h103v-295h570z" />
    <glyph glyph-name="uni041E" unicode="&#x41e;" horiz-adv-x="1030" 
d="M268 35q-103 47 -155.5 129t-52.5 186t52.5 186t155.5 129t247 47t247 -47t155.5 -129t52.5 -186t-52.5 -186t-155.5 -129t-247 -47t-247 47zM706.5 112q79.5 36 120 98t40.5 140t-40.5 140t-120 98t-191.5 36t-191.5 -36t-120 -98t-40.5 -140t40.5 -140t120 -98
t191.5 -36t191.5 36z" />
    <glyph glyph-name="uni041F" unicode="&#x41f;" horiz-adv-x="951" 
d="M198 0h-103v700h761v-700h-103v612h-555v-612z" />
    <glyph glyph-name="uni0420" unicode="&#x420;" horiz-adv-x="871" 
d="M534 700q135 0 206 -61.5t71 -167.5t-71 -167.5t-206 -61.5h-336v-242h-103v700h439zM534 330q85 0 129.5 38t44.5 103t-44.5 103t-129.5 38h-339v-282h339z" />
    <glyph glyph-name="uni0421" unicode="&#x421;" horiz-adv-x="1008" 
d="M266 35q-101 47 -153.5 129.5t-52.5 185.5t52.5 185.5t153.5 129.5t243 47q133 0 228 -37.5t149.5 -102.5t71.5 -147h-103q-22 86 -107.5 142.5t-238.5 56.5q-109 0 -187.5 -36t-118.5 -98t-40 -140t40 -140t118.5 -98t187.5 -36q153 0 238.5 56.5t107.5 142.5h103
q-25 -130 -137 -208.5t-312 -78.5q-142 0 -243 47z" />
    <glyph glyph-name="uni0422" unicode="&#x422;" horiz-adv-x="787" 
d="M445 0h-103v612h-317v88h737v-88h-317v-612z" />
    <glyph glyph-name="uni0423" unicode="&#x423;" horiz-adv-x="820" 
d="M686 700h119l-350 -555q-51 -81 -106 -119t-138 -38q-47 0 -87 13v90q40 -10 75 -10q58 0 95.5 20t65.5 65l12 20l-352 514h121l238 -360q20 -31 30.5 -52.5t10.5 -37.5v-6h13v6q0 17 9.5 38.5t27.5 51.5z" />
    <glyph glyph-name="uni0424" unicode="&#x424;" horiz-adv-x="1113" 
d="M616 659q150 0 248.5 -39.5t146 -109t47.5 -160.5t-47.5 -160.5t-146 -109t-248.5 -39.5h-8v-81h-103v81h-8q-150 0 -248.5 39.5t-146 109t-47.5 160.5t47.5 160.5t146 109t248.5 39.5h8v81h103v-81h8zM507 124v452h-12q-172 0 -254.5 -61.5t-82.5 -164.5t82.5 -164.5
t254.5 -61.5h12zM618 124q172 0 254.5 61.5t82.5 164.5t-82.5 164.5t-254.5 61.5h-12v-452h12z" />
    <glyph glyph-name="uni0425" unicode="&#x425;" horiz-adv-x="891" 
d="M25 0l347 355l-337 345h131l226 -238q24 -25 35.5 -40.5t11.5 -29.5v-5h13v5q0 14 11.5 29.5t35.5 40.5l226 238h131l-337 -345l347 -355h-134l-237 247q-22 23 -32.5 37.5t-10.5 27.5v5h-13v-5q0 -13 -10.5 -27.5t-32.5 -37.5l-237 -247h-134z" />
    <glyph glyph-name="uni0426" unicode="&#x426;" horiz-adv-x="986" 
d="M956 -175h-100v175h-761v700h103v-612h545v612h103v-612h110v-263z" />
    <glyph glyph-name="uni0427" unicode="&#x427;" horiz-adv-x="900" 
d="M702 700h103v-700h-103v281q-54 -35 -124 -53t-167 -18q-177 0 -261.5 77t-84.5 228v185h103v-185q0 -111 62 -164t205 -53q92 0 156 19.5t111 58.5v324z" />
    <glyph glyph-name="uni0428" unicode="&#x428;" horiz-adv-x="1226" 
d="M1028 88v612h103v-700h-1036v700h103v-612h365v612h100v-612h365z" />
    <glyph glyph-name="uni0429" unicode="&#x429;" horiz-adv-x="1271" 
d="M1131 700v-612h110v-263h-100v175h-1046v700h103v-612h365v612h100v-612h365v612h103z" />
    <glyph glyph-name="uni042A" unicode="&#x42a;" horiz-adv-x="996" 
d="M669 463q134 0 205.5 -63t71.5 -169t-71.5 -168.5t-205.5 -62.5h-439v612h-210v88h313v-237h336zM669 88q84 0 129 39t45 104q0 66 -45 105t-129 39h-339v-287h339z" />
    <glyph glyph-name="uni042B" unicode="&#x42b;" horiz-adv-x="1124" 
d="M514 463q134 0 205.5 -63t71.5 -169t-71.5 -168.5t-205.5 -62.5h-419v700h103v-237h316zM926 0v700h103v-700h-103zM514 88q84 0 129 39t45 104q0 66 -45 105t-129 39h-319v-287h319z" />
    <glyph glyph-name="uni042C" unicode="&#x42c;" horiz-adv-x="861" 
d="M534 463q134 0 205.5 -63t71.5 -169t-71.5 -168.5t-205.5 -62.5h-439v700h103v-237h336zM534 88q84 0 129 39t45 104q0 66 -45 105t-129 39h-339v-287h339z" />
    <glyph glyph-name="uni042D" unicode="&#x42d;" horiz-adv-x="1013" 
d="M747 665q101 -47 153.5 -129.5t52.5 -185.5t-52.5 -185.5t-153.5 -129.5t-243 -47q-132 0 -227 37t-150 99.5t-72 140.5h103q14 -50 55 -93t114 -69.5t177 -26.5q99 0 173 30t117 82.5t53 120.5h-455v83h455q-11 68 -54 120t-116.5 82t-172.5 30q-104 0 -177 -26.5
t-114 -69.5t-55 -93h-103q17 78 72 140.5t150 99.5t227 37q142 0 243 -47z" />
    <glyph glyph-name="uni042E" unicode="&#x42e;" horiz-adv-x="1263" 
d="M999 665q97 -47 148 -129t51 -186t-51 -186t-148 -129t-231 -47q-125 0 -218 41t-146.5 113.5t-63.5 166.5h-142v-309h-103v700h103v-308h142q10 93 63.5 165.5t147 113.5t217.5 41q134 0 231 -47zM942.5 112q74.5 36 113.5 98t39 140t-39 140t-113.5 98t-176.5 36
q-101 0 -175.5 -36t-113.5 -98t-39 -140t39 -140t113.5 -98t175.5 -36q102 0 176.5 36z" />
    <glyph glyph-name="uni042F" unicode="&#x42f;" horiz-adv-x="878" 
d="M783 700v-700h-103v257h-299q-45 0 -71 -6.5t-42.5 -23t-31.5 -49.5l-81 -178h-120l78 166q27 59 53.5 81t74.5 25v14q-74 9 -121.5 64.5t-47.5 136.5q0 60 31.5 108.5t92.5 76.5t146 28h441zM683 340v272h-341q-82 0 -124.5 -36.5t-42.5 -99.5t42.5 -99.5t124.5 -36.5
h341z" />
    <glyph glyph-name="uni0430" unicode="&#x430;" horiz-adv-x="772" 
d="M122 29q-57 41 -57 111q0 69 57 110t179 41q97 0 161.5 -19.5t125.5 -55.5v51q0 80 -56.5 126.5t-167.5 46.5q-101 0 -156 -35t-66 -85h-92q7 54 42.5 98.5t104 71.5t168.5 27q157 0 236 -67.5t79 -185.5v-150q0 -49 44 -49q15 0 33 5v-74q-25 -8 -51 -8q-49 0 -77 25.5
t-28 68.5v7h-13v-1q0 -24 -35 -47t-100.5 -38t-151.5 -15q-122 0 -179 41zM588 127v36q-59 29 -116.5 45t-139.5 16q-97 0 -136 -22t-39 -60t39 -60t136 -22q148 0 256 67z" />
    <glyph glyph-name="uni0431" unicode="&#x431;" horiz-adv-x="779" 
d="M142.5 69.5q-87.5 81.5 -87.5 236.5q0 164 91.5 246t289.5 82q96 0 143 8t62.5 24.5t15.5 45.5h92q0 -59 -22.5 -91.5t-85 -48t-186.5 -15.5q-172 0 -245 -59t-73 -181v-13h11q17 69 84 111t197 42q100 0 168.5 -29.5t102.5 -82t34 -119.5q0 -110 -82 -174t-248 -64
q-174 0 -261.5 81.5zM582 109.5q60 44.5 60 116.5q0 71 -60 115t-181 44q-122 0 -182 -44t-60 -115q0 -72 60 -116.5t182 -44.5q121 0 181 44.5z" />
    <glyph glyph-name="uni0432" unicode="&#x432;" horiz-adv-x="732" 
d="M576 255q55 -1 88 -34.5t33 -86.5q0 -61 -45 -97.5t-133 -36.5h-439v505h430q80 0 123.5 -35t43.5 -88q0 -49 -28.5 -80.5t-72.5 -33.5v-13zM172 428v-137h336q35 0 56 19t21 50q0 30 -21 49t-56 19h-336zM519 77q42 0 64 19t22 52t-22 52t-64 19h-347v-142h347z" />
    <glyph glyph-name="uni0433" unicode="&#x433;" horiz-adv-x="733" 
d="M114 25q-64 37 -64 103q0 62 44 95t106 45t160 21q73 7 114.5 13.5t69 22t27.5 44.5q0 34 -46.5 55t-167.5 21q-110 0 -161 -30t-54 -82h-92q5 88 82 136t225 48q158 0 232 -36t74 -105q0 -59 -43 -90.5t-104 -43.5t-159 -22q-75 -8 -117 -15.5t-70 -23.5t-28 -45
q0 -37 41.5 -56.5t156.5 -19.5q246 0 246 107v8h92v-8q0 -80 -78 -129.5t-264 -49.5q-158 0 -222 37z" />
    <glyph glyph-name="uni0434" unicode="&#x434;" horiz-adv-x="794" 
d="M138.5 56q-83.5 68 -83.5 182q0 73 35 129.5t105 88t169 31.5q125 0 195.5 -45t86.5 -114h11v17q0 138 -84 214t-247 76q-157 0 -261 -47v77q98 47 263 47q198 0 304.5 -103t106.5 -289q0 -90 -29 -158q-36 -84 -118 -129t-206 -45q-164 0 -247.5 68zM573.5 114
q62.5 49 62.5 126q0 78 -62.5 126.5t-182.5 48.5q-119 0 -181.5 -49t-62.5 -126t62.5 -126t181.5 -49q120 0 182.5 49z" />
    <glyph glyph-name="uni0435" unicode="&#x435;" horiz-adv-x="774" 
d="M722 216h-580q13 -70 76.5 -113t169.5 -43q97 0 151 29.5t79 70.5h92q-25 -69 -104 -120.5t-220 -51.5q-106 0 -182 34.5t-115 94.5t-39 135t39 135t115 95t183 35t183 -35t115 -95t39 -135q0 -18 -2 -36zM216.5 400.5q-63.5 -44.5 -75.5 -117.5h492q-12 73 -75.5 117.5
t-170.5 44.5t-170.5 -44.5z" />
    <glyph glyph-name="uni0436" unicode="&#x436;" horiz-adv-x="961" 
d="M635 262l316 -262h-127l-299 254v-254h-89v254l-299 -254h-127l316 262l-306 243h125l291 -236v236h89v-236l291 236h125z" />
    <glyph glyph-name="uni0437" unicode="&#x437;" horiz-adv-x="674" 
d="M507 256q62 -4 97 -37t35 -81q0 -69 -68.5 -109.5t-233.5 -40.5q-302 0 -302 170v12h92v-10q0 -95 210 -95q122 0 166 20t44 58t-42 58t-159 20h-114v72h114q109 0 150 19.5t41 54.5q0 34 -42.5 53.5t-157.5 19.5q-106 0 -153 -26t-47 -65v-9h-92v11q0 75 69 120.5
t223 45.5q157 0 224.5 -38.5t67.5 -98.5q0 -46 -32 -76.5t-90 -34.5v-13z" />
    <glyph glyph-name="uni0438" unicode="&#x438;" horiz-adv-x="797" 
d="M80 0v505h89v-314q0 -43 -3.5 -73.5t-11.5 -67.5h13l404 455h146v-505h-89v314q0 43 3.5 73.5t11.5 67.5h-13l-404 -455h-146z" />
    <glyph glyph-name="uni0439" unicode="&#x439;" horiz-adv-x="797" 
d="M80 0v505h89v-314q0 -43 -3.5 -73.5t-11.5 -67.5h13l404 455h146v-505h-89v314q0 43 3.5 73.5t11.5 67.5h-13l-404 -455h-146zM244 626.5q-57 46.5 -64 123.5h78q5 -51 42.5 -79t104.5 -28t104.5 28t42.5 79h78q-7 -77 -64 -123.5t-161 -46.5t-161 46.5z" />
    <glyph glyph-name="uni043A" unicode="&#x43a;" horiz-adv-x="669" 
d="M295 262l369 -262h-142l-350 255v-255h-92v505h92v-237l342 237h140z" />
    <glyph glyph-name="uni043B" unicode="&#x43b;" horiz-adv-x="769" 
d="M15 -2v79q21 -7 39 -7q44 0 64.5 27.5t26.5 78.5l37 329h507v-505h-92v428h-334l-30 -272q-9 -81 -49 -124.5t-109 -43.5q-31 0 -60 10z" />
    <glyph glyph-name="uni043C" unicode="&#x43c;" horiz-adv-x="919" 
d="M80 0v505h148l199 -308q26 -41 26 -61v-2h13v2q0 20 26 61l199 308h148v-505h-89v331q0 66 12 124h-13l-242 -370h-95l-242 370h-13q12 -58 12 -124v-331h-89z" />
    <glyph glyph-name="uni043D" unicode="&#x43d;" horiz-adv-x="792" 
d="M620 296v209h92v-505h-92v219h-448v-219h-92v505h92v-209h448z" />
    <glyph glyph-name="uni043E" unicode="&#x43e;" horiz-adv-x="784" 
d="M206 22.5q-77 34.5 -116.5 94.5t-39.5 135t39.5 135.5t116.5 95t186 34.5t186 -34.5t116.5 -95t39.5 -135.5t-39.5 -135t-116.5 -94.5t-186 -34.5t-186 34.5zM528.5 90q56.5 25 85 67t28.5 95t-28.5 95.5t-85 67.5t-136.5 25t-136.5 -25t-85 -67.5t-28.5 -95.5t28.5 -95
t85 -67t136.5 -25t136.5 25z" />
    <glyph glyph-name="uni043F" unicode="&#x43f;" horiz-adv-x="777" 
d="M172 0h-92v505h617v-505h-92v428h-433v-428z" />
    <glyph glyph-name="uni0440" unicode="&#x440;" horiz-adv-x="795" 
d="M80 -195v700h92l-16 -145h13q24 71 93 114t180 43q92 0 159 -34t103 -94t36 -137t-36 -136.5t-103 -93.5t-159 -34q-111 0 -180 43t-93 114h-13q9 -60 12.5 -98.5t3.5 -83.5v-158h-92zM539.5 89.5q53.5 24.5 81 67t27.5 95.5q0 54 -27.5 96.5t-81 67t-129.5 24.5
t-129.5 -24.5t-81 -67t-27.5 -96.5q0 -53 27.5 -95.5t81 -67t129.5 -24.5t129.5 24.5z" />
    <glyph glyph-name="uni0441" unicode="&#x441;" horiz-adv-x="755" 
d="M203 22.5q-75 34.5 -114 94.5t-39 135t39 135t114 95t180 35q96 0 168 -29t113.5 -79t50.5 -114h-92q-12 62 -74 103.5t-166 41.5q-76 0 -130.5 -25t-82.5 -67.5t-28 -95.5q0 -52 28 -94.5t82.5 -67.5t130.5 -25q104 0 166 41.5t74 103.5h92q-9 -64 -50.5 -114
t-113.5 -79t-168 -29q-105 0 -180 34.5z" />
    <glyph glyph-name="uni0442" unicode="&#x442;" horiz-adv-x="626" 
d="M359 0h-92v428h-247v77h586v-77h-247v-428z" />
    <glyph glyph-name="uni0443" unicode="&#x443;" horiz-adv-x="701" 
d="M573 505h108l-296 -540q-54 -99 -108 -139.5t-134 -40.5q-44 0 -83 14v77q36 -14 73 -14q55 0 89 23.5t67 81.5l13 22l-282 516h108l193 -373q22 -43 22 -72v-1h13v1q0 31 21 72z" />
    <glyph glyph-name="uni0444" unicode="&#x444;" horiz-adv-x="1107" 
d="M505 -22q0 59 12 133h-13q-21 -54 -73.5 -88.5t-134.5 -34.5q-72 0 -126.5 31t-84.5 90.5t-30 142.5t30 142.5t84.5 91t126.5 31.5q82 0 134.5 -35t73.5 -89h13q-12 72 -12 132v175h97v-175q0 -60 -12 -132h13q21 54 73.5 89t134.5 35q72 0 126.5 -31.5t84.5 -91
t30 -142.5t-30 -142.5t-84.5 -90.5t-126.5 -31q-82 0 -134.5 34.5t-73.5 88.5h-13q12 -74 12 -133v-173h-97v173zM460 115.5q49 50.5 49 136.5q0 87 -49 137.5t-132 50.5t-132 -50.5t-49 -137.5q0 -86 49 -136.5t132 -50.5t132 50.5zM911 115.5q49 50.5 49 136.5
q0 87 -49 137.5t-132 50.5t-132 -50.5t-49 -137.5q0 -86 49 -136.5t132 -50.5t132 50.5z" />
    <glyph glyph-name="uni0445" unicode="&#x445;" horiz-adv-x="707" 
d="M15 0l273 257l-263 248h121l163 -158q38 -36 38 -60v-2h13v2q0 21 39 60l162 158h121l-264 -248l274 -257h-123l-174 169q-35 33 -35 51v4h-13v-4q0 -19 -34 -51l-175 -169h-123z" />
    <glyph glyph-name="uni0446" unicode="&#x446;" horiz-adv-x="802" 
d="M782 -145h-89v145h-613v505h92v-428h423v428h92v-428h95v-222z" />
    <glyph glyph-name="uni0447" unicode="&#x447;" horiz-adv-x="732" 
d="M560 505h92v-505h-92v195q-43 -30 -97 -44.5t-131 -14.5q-150 0 -216 61t-66 192v116h92v-111q0 -96 47.5 -138.5t161.5 -42.5q69 0 119 16t90 49v227z" />
    <glyph glyph-name="uni0448" unicode="&#x448;" horiz-adv-x="999" 
d="M827 77v428h92v-505h-839v505h92v-428h283v428h89v-428h283z" />
    <glyph glyph-name="uni0449" unicode="&#x449;" horiz-adv-x="1034" 
d="M919 505v-428h95v-222h-89v145h-845v505h92v-428h283v428h89v-428h283v428h92z" />
    <glyph glyph-name="uni044A" unicode="&#x44a;" horiz-adv-x="792" 
d="M548 346q104 0 156.5 -45.5t52.5 -127.5t-52.5 -127.5t-156.5 -45.5h-356v428h-177v77h269v-159h264zM548 77q56 0 86.5 26.5t30.5 69.5t-30.5 69.5t-86.5 26.5h-267v-192h267z" />
    <glyph glyph-name="uni044B" unicode="&#x44b;" horiz-adv-x="917" 
d="M416 346q104 0 156.5 -45.5t52.5 -127.5t-52.5 -127.5t-156.5 -45.5h-336v505h92v-159h244zM745 0v505h92v-505h-92zM416 77q56 0 86.5 26.5t30.5 69.5t-30.5 69.5t-86.5 26.5h-247v-192h247z" />
    <glyph glyph-name="uni044C" unicode="&#x44c;" horiz-adv-x="680" 
d="M436 346q104 0 156.5 -45.5t52.5 -127.5t-52.5 -127.5t-156.5 -45.5h-356v505h92v-159h264zM436 77q56 0 86.5 26.5t30.5 69.5t-30.5 69.5t-86.5 26.5h-267v-192h267z" />
    <glyph glyph-name="uni044D" unicode="&#x44d;" horiz-adv-x="760" 
d="M557 482q75 -35 114 -95t39 -135t-39 -135t-114 -94.5t-180 -34.5q-96 0 -168 28.5t-113.5 78t-50.5 110.5h92q8 -37 37.5 -69t81 -51.5t121.5 -19.5q100 0 162 42t75 109h-313v72h313q-13 68 -75 110t-162 42q-70 0 -121.5 -19.5t-81 -51.5t-37.5 -69h-92
q9 61 50.5 110.5t113.5 78t168 28.5q105 0 180 -35z" />
    <glyph glyph-name="uni044E" unicode="&#x44e;" horiz-adv-x="993" 
d="M790 482.5q73 -34.5 110.5 -94.5t37.5 -136t-37.5 -136t-110.5 -94t-175 -34q-94 0 -163.5 29.5t-109.5 81.5t-48 119h-122v-218h-92v505h92v-215h123q9 67 48.5 118t109 80t162.5 29q102 0 175 -34.5zM739 89.5q53 24.5 80 67t27 95.5q0 54 -27 96.5t-80 67t-126 24.5
t-125.5 -24.5t-79.5 -67t-27 -96.5q0 -53 27 -95.5t79.5 -67t125.5 -24.5t126 24.5z" />
    <glyph glyph-name="uni044F" unicode="&#x44f;" horiz-adv-x="715" 
d="M635 505v-505h-92v171h-246q-44 0 -69 -12.5t-39 -46.5l-47 -112h-112l44 98q22 49 45 68t67 22v13q-59 4 -96 43.5t-37 98.5q0 75 52 118.5t155 43.5h375zM546 243v185h-286q-56 0 -85.5 -25t-29.5 -68q0 -42 29.5 -67t85.5 -25h286z" />
    <glyph glyph-name="uni0451" unicode="&#x451;" horiz-adv-x="774" 
d="M722 216h-580q13 -70 76.5 -113t169.5 -43q97 0 151 29.5t79 70.5h92q-25 -69 -104 -120.5t-220 -51.5q-106 0 -182 34.5t-115 94.5t-39 135t39 135t115 95t183 35t183 -35t115 -95t39 -135q0 -18 -2 -36zM216.5 400.5q-63.5 -44.5 -75.5 -117.5h492q-12 73 -75.5 117.5
t-170.5 44.5t-170.5 -44.5zM225 627.5q-15 13.5 -15 34.5t15 34.5t41 13.5t41 -13.5t15 -34.5t-15 -34.5t-41 -13.5t-41 13.5zM467 627.5q-15 13.5 -15 34.5t15 34.5t41 13.5t41 -13.5t15 -34.5t-15 -34.5t-41 -13.5t-41 13.5z" />
    <glyph glyph-name="uni0452" unicode="&#x452;" horiz-adv-x="838" 
d="M693.5 407.5q79.5 -79.5 79.5 -221.5q0 -143 -82 -222t-234 -79q-47 0 -77 3t-63 11v77q31 -8 57 -11t67 -3q116 0 178 59t62 165t-62 165t-178 59q-109 0 -169 -61t-60 -175v-174h-92v564h-105v67h105v69h92v-69h265v-67h-265v-70q0 -45 -3.5 -83.5t-12.5 -95.5h13
q20 77 87 124.5t176 47.5q142 0 221.5 -79.5z" />
    <glyph glyph-name="uni0453" unicode="&#x453;" horiz-adv-x="733" 
d="M114 25q-64 37 -64 103q0 62 44 95t106 45t160 21q73 7 114.5 13.5t69 22t27.5 44.5q0 34 -46.5 55t-167.5 21q-110 0 -161 -30t-54 -82h-92q5 88 82 136t225 48q158 0 232 -36t74 -105q0 -59 -43 -90.5t-104 -43.5t-159 -22q-75 -8 -117 -15.5t-70 -23.5t-28 -45
q0 -37 41.5 -56.5t156.5 -19.5q246 0 246 107v8h92v-8q0 -80 -78 -129.5t-264 -49.5q-158 0 -222 37zM368 585h-77l100 160h112z" />
    <glyph glyph-name="uni0454" unicode="&#x454;" horiz-adv-x="760" 
d="M504.5 84.5q51.5 19.5 81 51.5t37.5 69h92q-9 -61 -50.5 -110.5t-113.5 -78t-168 -28.5q-105 0 -180 34.5t-114 94.5t-39 135t39 135t114 95t180 35q96 0 168 -28.5t113.5 -78t50.5 -110.5h-92q-8 37 -37.5 69t-81 51.5t-121.5 19.5q-100 0 -162 -42t-75 -110h313v-72
h-313q13 -67 75 -109t162 -42q70 0 121.5 19.5z" />
    <glyph glyph-name="uni0455" unicode="&#x455;" horiz-adv-x="733" 
d="M128.5 36.5q-73.5 48.5 -73.5 131.5v12h92v-11q0 -49 51.5 -79t170.5 -30q125 0 173.5 23t48.5 61q0 32 -29.5 48.5t-73.5 22t-121 8.5q-98 4 -159.5 13t-104.5 39.5t-43 90.5q0 151 309 151q158 0 232 -50.5t77 -133.5h-92q-6 112 -217 112q-217 0 -217 -84
q0 -30 28 -44.5t70.5 -19t115.5 -7.5q102 -4 164.5 -13.5t107.5 -41t45 -95.5q0 -71 -70.5 -111.5t-243.5 -40.5q-167 0 -240.5 48.5z" />
    <glyph glyph-name="uni0456" unicode="&#x456;" horiz-adv-x="535" 
d="M332 77h178v-77h-470v77h203v283q0 40 -17 57.5t-57 17.5q-19 0 -34 -3.5t-35 -10.5v79q44 17 97 17q70 0 102.5 -31t32.5 -95v-314zM225.5 621.5q-17.5 15.5 -17.5 40.5t17.5 40.5t46.5 15.5t46.5 -15.5t17.5 -40.5t-17.5 -40.5t-46.5 -15.5t-46.5 15.5z" />
    <glyph glyph-name="uni0457" unicode="&#x457;" horiz-adv-x="535" 
d="M332 77h178v-77h-470v77h203v283q0 40 -17 57.5t-57 17.5q-19 0 -34 -3.5t-35 -10.5v79q44 17 97 17q70 0 102.5 -31t32.5 -95v-314zM110 627.5q-15 13.5 -15 34.5t15 34.5t41 13.5t41 -13.5t15 -34.5t-15 -34.5t-41 -13.5t-41 13.5zM352 627.5q-15 13.5 -15 34.5
t15 34.5t41 13.5t41 -13.5t15 -34.5t-15 -34.5t-41 -13.5t-41 13.5z" />
    <glyph glyph-name="uni0458" unicode="&#x458;" horiz-adv-x="335" 
d="M-23 -212q-22 3 -47 11v77q42 -14 86 -14q81 0 118 31.5t37 94.5v372q0 40 -17 57.5t-57 17.5q-19 0 -34 -3.5t-35 -10.5v79q44 17 97 17q70 0 102.5 -31t32.5 -95v-404q0 -202 -229 -202q-32 0 -54 3zM153.5 621.5q-17.5 15.5 -17.5 40.5t17.5 40.5t46.5 15.5
t46.5 -15.5t17.5 -40.5t-17.5 -40.5t-46.5 -15.5t-46.5 15.5z" />
    <glyph glyph-name="uni0459" unicode="&#x459;" horiz-adv-x="1152" 
d="M922 321q97 0 146 -42.5t49 -118.5q0 -75 -49 -117.5t-146 -42.5h-350v428h-309l-30 -272q-9 -81 -49 -124.5t-109 -43.5q-31 0 -60 10v79q21 -7 39 -7q44 0 64.5 27.5t26.5 78.5l37 329h482v-184h258zM922 72q48 0 75.5 24.5t27.5 63.5q0 40 -27.5 64.5t-75.5 24.5h-261
v-177h261z" />
    <glyph glyph-name="uni045A" unicode="&#x45a;" horiz-adv-x="1175" 
d="M945 321q97 0 146 -42.5t49 -118.5q0 -75 -49 -117.5t-146 -42.5h-350v244h-423v-244h-92v505h92v-184h423v184h92v-184h258zM945 72q48 0 75.5 24.5t27.5 63.5q0 40 -27.5 64.5t-75.5 24.5h-261v-177h261z" />
    <glyph glyph-name="uni045B" unicode="&#x45b;" horiz-adv-x="838" 
d="M686 409.5q77 -77.5 77 -216.5v-193h-92v174q0 114 -60 175t-170 61q-109 0 -169 -61t-60 -175v-174h-92v564h-105v67h105v69h92v-69h265v-67h-265v-70q0 -45 -3.5 -83.5t-12.5 -95.5h13q20 77 87 124.5t176 47.5q137 0 214 -77.5z" />
    <glyph glyph-name="uni045C" unicode="&#x45c;" horiz-adv-x="669" 
d="M295 262l369 -262h-142l-350 255v-255h-92v505h92v-237l342 237h140zM357 585h-77l100 160h112z" />
    <glyph glyph-name="uni045E" unicode="&#x45e;" horiz-adv-x="701" 
d="M573 505h108l-296 -540q-54 -99 -108 -139.5t-134 -40.5q-44 0 -83 14v77q36 -14 73 -14q55 0 89 23.5t67 81.5l13 22l-282 516h108l193 -373q22 -43 22 -72v-1h13v1q0 31 21 72zM189 626.5q-57 46.5 -64 123.5h78q5 -51 42.5 -79t104.5 -28t104.5 28t42.5 79h78
q-7 -77 -64 -123.5t-161 -46.5t-161 46.5z" />
    <glyph glyph-name="uni045F" unicode="&#x45f;" horiz-adv-x="782" 
d="M610 505h92v-505h-267v-145h-89v145h-266v505h92v-428h438v428z" />
    <glyph glyph-name="uni0490" unicode="&#x490;" horiz-adv-x="765" 
d="M611 700v168h99v-256h-512v-612h-103v700h516z" />
    <glyph glyph-name="uni0491" unicode="&#x491;" horiz-adv-x="610" 
d="M483 505v130h87v-207h-398v-428h-92v505h403z" />
    <glyph glyph-name="Wgrave" unicode="&#x1e80;" horiz-adv-x="1187" 
d="M281 0l-241 700h110l180 -541q19 -59 19 -95v-3h13v3q0 45 19 95l153 411h119l153 -411q19 -50 19 -95v-3h13v3q0 36 19 95l180 541h110l-241 -700h-132l-150 395q-12 32 -18 57.5t-6 54.5v2h-13v-2q0 -29 -6 -54.5t-18 -57.5l-150 -395h-132zM669 775h-87l-163 170h130z
" />
    <glyph glyph-name="wgrave" unicode="&#x1e81;" horiz-adv-x="1011" 
d="M224 0l-199 505h99l143 -376q15 -39 15 -74v-5h13v5q0 22 2 39.5t9 34.5l152 376h95l152 -376q7 -17 9 -34.5t2 -39.5v-5h13v5q0 35 15 74l143 376h99l-199 -505h-114l-147 359q-14 33 -14 92v4h-13v-4q0 -59 -14 -92l-147 -359h-114zM572 585h-77l-135 160h112z" />
    <glyph glyph-name="Wacute" unicode="&#x1e82;" horiz-adv-x="1187" 
d="M281 0l-241 700h110l180 -541q19 -59 19 -95v-3h13v3q0 45 19 95l153 411h119l153 -411q19 -50 19 -95v-3h13v3q0 36 19 95l180 541h110l-241 -700h-132l-150 395q-12 32 -18 57.5t-6 54.5v2h-13v-2q0 -29 -6 -54.5t-18 -57.5l-150 -395h-132zM606 775h-87l120 170h130z
" />
    <glyph glyph-name="wacute" unicode="&#x1e83;" horiz-adv-x="1011" 
d="M224 0l-199 505h99l143 -376q15 -39 15 -74v-5h13v5q0 22 2 39.5t9 34.5l152 376h95l152 -376q7 -17 9 -34.5t2 -39.5v-5h13v5q0 35 15 74l143 376h99l-199 -505h-114l-147 359q-14 33 -14 92v4h-13v-4q0 -59 -14 -92l-147 -359h-114zM517 585h-77l100 160h112z" />
    <glyph glyph-name="Wdieresis" unicode="&#x1e84;" horiz-adv-x="1187" 
d="M281 0l-241 700h110l180 -541q19 -59 19 -95v-3h13v3q0 45 19 95l153 411h119l153 -411q19 -50 19 -95v-3h13v3q0 36 19 95l180 541h110l-241 -700h-132l-150 395q-12 32 -18 57.5t-6 54.5v2h-13v-2q0 -29 -6 -54.5t-18 -57.5l-150 -395h-132zM403 809.5
q-18 15.5 -18 40.5q0 24 18 39.5t49 15.5t49 -15.5t18 -39.5q0 -25 -18 -40.5t-49 -15.5t-49 15.5zM687 809.5q-18 15.5 -18 40.5q0 24 18 39.5t49 15.5t49 -15.5t18 -39.5q0 -25 -18 -40.5t-49 -15.5t-49 15.5z" />
    <glyph glyph-name="wdieresis" unicode="&#x1e85;" horiz-adv-x="1011" 
d="M224 0l-199 505h99l143 -376q15 -39 15 -74v-5h13v5q0 22 2 39.5t9 34.5l152 376h95l152 -376q7 -17 9 -34.5t2 -39.5v-5h13v5q0 35 15 74l143 376h99l-199 -505h-114l-147 359q-14 33 -14 92v4h-13v-4q0 -59 -14 -92l-147 -359h-114zM344 627.5q-15 13.5 -15 34.5
t15 34.5t41 13.5t41 -13.5t15 -34.5t-15 -34.5t-41 -13.5t-41 13.5zM586 627.5q-15 13.5 -15 34.5t15 34.5t41 13.5t41 -13.5t15 -34.5t-15 -34.5t-41 -13.5t-41 13.5z" />
    <glyph glyph-name="uni1E9E" unicode="&#x1e9e;" horiz-adv-x="981" 
d="M386.5 50q-80.5 62 -80.5 164v6h103v-4q0 -64 54.5 -104.5t162.5 -40.5q120 0 168.5 28t48.5 77q0 43 -27 64.5t-67 29.5t-108 13q-82 7 -131.5 17.5t-84 43.5t-34.5 98q0 64 58.5 102.5t156.5 54.5v13h-239q-93 0 -136 -43t-43 -135v-434h-103v434q0 134 69 200t213 66
h474v-88q-136 -25 -213 -49t-108 -49.5t-31 -56.5q0 -36 24 -54.5t60.5 -25.5t100.5 -13q87 -8 141 -20.5t92.5 -51.5t38.5 -116q0 -188 -320 -188q-159 0 -239.5 62z" />
    <glyph glyph-name="uni1EBC" unicode="&#x1ebc;" horiz-adv-x="835" 
d="M765 700v-88h-567v-215h497v-83h-497v-226h567v-88h-670v700h670zM234 775q-30 45 -30 90q0 43 28 69t77 26q43 0 74.5 -18t71.5 -53q28 -24 46.5 -35.5t37.5 -11.5q18 0 28.5 11t10.5 32q0 36 -27 75h74q30 -45 30 -90q0 -43 -28 -69t-77 -26q-43 0 -74.5 18t-71.5 53
q-28 24 -46.5 35.5t-37.5 11.5q-18 0 -28.5 -11t-10.5 -32q0 -36 27 -75h-74z" />
    <glyph glyph-name="uni1EBD" unicode="&#x1ebd;" horiz-adv-x="774" 
d="M722 216h-580q13 -70 76.5 -113t169.5 -43q97 0 151 29.5t79 70.5h92q-25 -69 -104 -120.5t-220 -51.5q-106 0 -182 34.5t-115 94.5t-39 135t39 135t115 95t183 35t183 -35t115 -95t39 -135q0 -18 -2 -36zM216.5 400.5q-63.5 -44.5 -75.5 -117.5h492q-12 73 -75.5 117.5
t-170.5 44.5t-170.5 -44.5zM207 580q-14 18 -22 40t-8 43q0 40 27.5 66t73.5 26q41 0 70.5 -18t62.5 -50q24 -23 40.5 -34t34.5 -11t28.5 11t10.5 31q0 17 -7.5 36t-19.5 35h69q14 -18 22 -40t8 -43q0 -40 -27.5 -66t-73.5 -26q-41 0 -70.5 18t-62.5 50q-24 23 -40.5 34
t-34.5 11t-28.5 -11t-10.5 -31q0 -17 7.5 -36t19.5 -35h-69z" />
    <glyph glyph-name="Ygrave" unicode="&#x1ef2;" horiz-adv-x="835" 
d="M366 0v234l-346 466h119l231 -320q21 -29 31 -48t10 -34v-7h13v7q0 15 10 34t31 48l231 320h119l-346 -466v-234h-103zM493 775h-87l-163 170h130z" />
    <glyph glyph-name="ygrave" unicode="&#x1ef3;" horiz-adv-x="701" 
d="M573 505h108l-296 -540q-54 -99 -108 -139.5t-134 -40.5q-44 0 -83 14v77q36 -14 73 -14q55 0 89 23.5t67 81.5l13 22l-282 516h108l193 -373q22 -43 22 -72v-1h13v1q0 31 21 72zM416 585h-77l-135 160h112z" />
    <glyph glyph-name="uni1EF8" unicode="&#x1ef8;" horiz-adv-x="835" 
d="M366 0v234l-346 466h119l231 -320q21 -29 31 -48t10 -34v-7h13v7q0 15 10 34t31 48l231 320h119l-346 -466v-234h-103zM222 775q-30 45 -30 90q0 43 28 69t77 26q43 0 74.5 -18t71.5 -53q28 -24 46.5 -35.5t37.5 -11.5q18 0 28.5 11t10.5 32q0 36 -27 75h74
q30 -45 30 -90q0 -43 -28 -69t-77 -26q-43 0 -74.5 18t-71.5 53q-28 24 -46.5 35.5t-37.5 11.5q-18 0 -28.5 -11t-10.5 -32q0 -36 27 -75h-74z" />
    <glyph glyph-name="uni1EF9" unicode="&#x1ef9;" horiz-adv-x="701" 
d="M573 505h108l-296 -540q-54 -99 -108 -139.5t-134 -40.5q-44 0 -83 14v77q36 -14 73 -14q55 0 89 23.5t67 81.5l13 22l-282 516h108l193 -373q22 -43 22 -72v-1h13v1q0 31 21 72zM170 580q-14 18 -22 40t-8 43q0 40 27.5 66t73.5 26q41 0 70.5 -18t62.5 -50
q24 -23 40.5 -34t34.5 -11t28.5 11t10.5 31q0 17 -7.5 36t-19.5 35h69q14 -18 22 -40t8 -43q0 -40 -27.5 -66t-73.5 -26q-41 0 -70.5 18t-62.5 50q-24 23 -40.5 34t-34.5 11t-28.5 -11t-10.5 -31q0 -17 7.5 -36t19.5 -35h-69z" />
    <glyph glyph-name="endash" unicode="&#x2013;" horiz-adv-x="730" 
d="M670 216h-610v72h610v-72z" />
    <glyph glyph-name="emdash" unicode="&#x2014;" horiz-adv-x="970" 
d="M910 216h-850v72h850v-72z" />
    <glyph glyph-name="quoteleft" unicode="&#x2018;" horiz-adv-x="216" 
d="M65 613.5q20 47.5 55.5 73t80.5 25.5v-85h-8q-49 0 -78 -24.5t-34 -69.5q13 5 27 5q28 0 45.5 -16.5t17.5 -41.5t-17 -41.5t-42 -16.5q-67 0 -67 80q0 64 20 111.5z" />
    <glyph glyph-name="quoteright" unicode="&#x2019;" horiz-adv-x="216" 
d="M171 632q0 -64 -20 -111.5t-55.5 -73t-80.5 -25.5v85h8q49 0 78 24.5t34 69.5q-13 -5 -27 -5q-28 0 -45.5 16.5t-17.5 41.5t17 41.5t42 16.5q67 0 67 -80z" />
    <glyph glyph-name="quotesinglbase" unicode="&#x201a;" horiz-adv-x="216" 
d="M171 24q0 -64 -20 -111.5t-55.5 -73t-80.5 -25.5v85h8q49 0 78 24.5t34 69.5q-13 -5 -27 -5q-28 0 -45.5 16.5t-17.5 41.5t17 41.5t42 16.5q67 0 67 -80z" />
    <glyph glyph-name="quotedblleft" unicode="&#x201c;" horiz-adv-x="412" 
d="M65 613.5q20 47.5 55.5 73t80.5 25.5v-85h-8q-49 0 -78 -24.5t-34 -69.5q13 5 27 5q28 0 45.5 -16.5t17.5 -41.5t-17 -41.5t-42 -16.5q-67 0 -67 80q0 64 20 111.5zM261 613.5q20 47.5 55.5 73t80.5 25.5v-85h-8q-49 0 -78 -24.5t-34 -69.5q13 5 27 5q28 0 45.5 -16.5
t17.5 -41.5t-17 -41.5t-42 -16.5q-67 0 -67 80q0 64 20 111.5z" />
    <glyph glyph-name="quotedblright" unicode="&#x201d;" horiz-adv-x="412" 
d="M171 632q0 -64 -20 -111.5t-55.5 -73t-80.5 -25.5v85h8q49 0 78 24.5t34 69.5q-13 -5 -27 -5q-28 0 -45.5 16.5t-17.5 41.5t17 41.5t42 16.5q67 0 67 -80zM367 632q0 -64 -20 -111.5t-55.5 -73t-80.5 -25.5v85h8q49 0 78 24.5t34 69.5q-13 -5 -27 -5q-28 0 -45.5 16.5
t-17.5 41.5t17 41.5t42 16.5q67 0 67 -80z" />
    <glyph glyph-name="quotedblbase" unicode="&#x201e;" horiz-adv-x="412" 
d="M171 24q0 -64 -20 -111.5t-55.5 -73t-80.5 -25.5v85h8q49 0 78 24.5t34 69.5q-13 -5 -27 -5q-28 0 -45.5 16.5t-17.5 41.5t17 41.5t42 16.5q67 0 67 -80zM367 24q0 -64 -20 -111.5t-55.5 -73t-80.5 -25.5v85h8q49 0 78 24.5t34 69.5q-13 -5 -27 -5q-28 0 -45.5 16.5
t-17.5 41.5t17 41.5t42 16.5q67 0 67 -80z" />
    <glyph glyph-name="dagger" unicode="&#x2020;" horiz-adv-x="580" 
d="M335 545h185v-80h-185v-575h-90v575h-185v80h185v195h90v-195z" />
    <glyph glyph-name="daggerdbl" unicode="&#x2021;" horiz-adv-x="600" 
d="M530 545v-75h-185v-220h185v-75h-185v-285h-90v285h-185v75h185v220h-185v75h185v195h90v-195h185z" />
    <glyph glyph-name="bullet" unicode="&#x2022;" horiz-adv-x="375" 
d="M124.5 198q-24.5 23 -24.5 57t24.5 57t62.5 23t63 -23t25 -57t-25 -57t-63 -23t-62.5 23z" />
    <glyph glyph-name="ellipsis" unicode="&#x2026;" horiz-adv-x="748" 
d="M62.5 4.5q-17.5 16.5 -17.5 41.5t17.5 41.5t45.5 16.5t45.5 -16.5t17.5 -41.5t-17.5 -41.5t-45.5 -16.5t-45.5 16.5zM328.5 4.5q-17.5 16.5 -17.5 41.5t17.5 41.5t45.5 16.5t45.5 -16.5t17.5 -41.5t-17.5 -41.5t-45.5 -16.5t-45.5 16.5zM594.5 4.5q-17.5 16.5 -17.5 41.5
t17.5 41.5t45.5 16.5t45.5 -16.5t17.5 -41.5t-17.5 -41.5t-45.5 -16.5t-45.5 16.5z" />
    <glyph glyph-name="perthousand" unicode="&#x2030;" horiz-adv-x="1355" 
d="M142 379q-44 23 -68 63.5t-24 91.5t24 91.5t68 63.5t103 23t103 -23t68 -63.5t24 -91.5t-24 -91.5t-68 -63.5t-103 -23t-103 23zM250 0h-90l520 700h90zM338 451q35 33 35 83t-35 83t-93 33t-93 -33t-35 -83t35 -83t93 -33t93 33zM582 11q-44 23 -68 63.5t-24 91.5
t24 91.5t68 63.5t103 23t103 -23t68 -63.5t24 -91.5t-24 -91.5t-68 -63.5t-103 -23t-103 23zM1012 11q-44 23 -68 63.5t-24 91.5t24 91.5t68 63.5t103 23t103 -23t68 -63.5t24 -91.5t-24 -91.5t-68 -63.5t-103 -23t-103 23zM778 83q35 33 35 83t-35 83t-93 33t-93 -33
t-35 -83t35 -83t93 -33t93 33zM1208 83q35 33 35 83t-35 83t-93 33t-93 -33t-35 -83t35 -83t93 -33t93 33z" />
    <glyph glyph-name="guilsinglleft" unicode="&#x2039;" horiz-adv-x="353" 
d="M313 63h-100l-183 190l183 190h100l-185 -190z" />
    <glyph glyph-name="guilsinglright" unicode="&#x203a;" horiz-adv-x="353" 
d="M140 63h-100l185 190l-185 190h100l183 -190z" />
    <glyph glyph-name="fraction" unicode="&#x2044;" horiz-adv-x="240" 
d="M-95 0h-90l520 700h90z" />
    <glyph glyph-name="uni2070" unicode="&#x2070;" horiz-adv-x="504" 
d="M97 466.5q-57 54.5 -57 143.5t57 143.5t155 54.5t155 -54.5t57 -143.5t-57 -143.5t-155 -54.5t-155 54.5zM353.5 511.5q38.5 37.5 38.5 98.5t-38.5 98.5t-101.5 37.5t-101.5 -37.5t-38.5 -98.5t38.5 -98.5t101.5 -37.5t101.5 37.5z" />
    <glyph glyph-name="uni2074" unicode="&#x2074;" horiz-adv-x="460" 
d="M365 553h75v-57h-75v-72h-72v72h-263v57l238 243h97v-243zM120 562v-9h178v115q0 29 4 49.5t14 50.5h-9q-13 -23 -23 -37.5t-26 -30.5z" />
    <glyph glyph-name="uni2075" unicode="&#x2075;" horiz-adv-x="460" 
d="M85.5 444q-48.5 32 -48.5 82v6h72v-5q0 -25 29.5 -41.5t97.5 -16.5q127 0 127 73q0 72 -129 72q-58 0 -86.5 -9.5t-43.5 -26.5h-69l26 218h359v-57h-305l-16 -120h9q19 22 50 34.5t93 12.5q93 0 138.5 -34.5t45.5 -92.5q0 -59 -48 -93t-151 -34q-102 0 -150.5 32z" />
    <glyph glyph-name="uni2076" unicode="&#x2076;" horiz-adv-x="494" 
d="M92.5 459q-52.5 47 -52.5 151q0 198 217 198q99 0 148 -33t49 -81v-4h-72v3q0 12 -13.5 25.5t-41.5 23t-68 9.5q-75 0 -113.5 -35.5t-38.5 -100.5q0 -16 1 -25h9q10 26 45 45.5t110 19.5q95 0 141 -33t46 -86q0 -57 -48.5 -90.5t-156.5 -33.5q-109 0 -161.5 47zM387 536
q0 67 -135 67t-135 -67t135 -67t135 67z" />
    <glyph glyph-name="uni2077" unicode="&#x2077;" horiz-adv-x="425" 
d="M132 424q0 210 208 298v9h-300v65h360v-75q-105 -50 -148 -126t-43 -171h-77z" />
    <glyph glyph-name="uni2078" unicode="&#x2078;" horiz-adv-x="500" 
d="M360 612q44 -3 72 -27.5t28 -62.5q0 -50 -49 -80t-161 -30t-161 30t-49 80q0 38 28 62.5t72 27.5v9q-42 3 -66 26t-24 59q0 46 46.5 74t153.5 28t153.5 -28t46.5 -74q0 -36 -24 -59t-66 -26v-9zM150 654q28 -15 100 -15t100 15t28 41t-28 41t-100 15t-100 -15t-28 -41
t28 -41zM358 484.5q30 15.5 30 43.5t-30 43.5t-108 15.5t-108 -15.5t-30 -43.5t30 -43.5t108 -15.5t108 15.5z" />
    <glyph glyph-name="uni2079" unicode="&#x2079;" horiz-adv-x="494" 
d="M126 427.5q-44 15.5 -65 40.5t-21 53v4h72v-3q0 -10 13.5 -22.5t41.5 -21.5t68 -9q75 0 113.5 34.5t38.5 96.5q0 16 -1 25h-9q-10 -26 -45 -45.5t-110 -19.5q-96 0 -141.5 33.5t-45.5 88.5q0 126 205 126q109 0 161.5 -47t52.5 -151q0 -198 -217 -198q-67 0 -111 15.5z
M377 682q0 69 -135 69t-135 -69q0 -70 135 -70t135 70z" />
    <glyph glyph-name="uni2080" unicode="&#x2080;" horiz-adv-x="504" 
d="M97 -53.5q-57 54.5 -57 143.5t57 143.5t155 54.5t155 -54.5t57 -143.5t-57 -143.5t-155 -54.5t-155 54.5zM353.5 -8.5q38.5 37.5 38.5 98.5t-38.5 98.5t-101.5 37.5t-101.5 -37.5t-38.5 -98.5t38.5 -98.5t101.5 -37.5t101.5 37.5z" />
    <glyph glyph-name="uni2081" unicode="&#x2081;" horiz-adv-x="415" 
d="M266 -39h139v-57h-360v57h154v112q0 33 5 57.5t18 65.5h-9q-15 -44 -48.5 -69t-94.5 -25v57h18q59 0 87.5 28t28.5 78v11h62v-315z" />
    <glyph glyph-name="uni2082" unicode="&#x2082;" horiz-adv-x="485" 
d="M122 -39h323v-57h-395v59q0 53 28.5 82t68.5 40t102 18q46 6 71 11.5t41.5 17.5t16.5 35q0 29 -30.5 46.5t-100.5 17.5q-71 0 -100.5 -19t-29.5 -55v-9h-72v11q0 61 47.5 95t154.5 34q106 0 154.5 -31.5t48.5 -82.5q0 -43 -25 -67t-60.5 -34.5t-94.5 -19.5
q-50 -8 -79 -16t-49 -24.5t-20 -45.5v-6z" />
    <glyph glyph-name="uni2083" unicode="&#x2083;" horiz-adv-x="468" 
d="M260 128q183 -4 183 -118q0 -53 -48.5 -85.5t-155.5 -32.5t-155.5 33.5t-48.5 90.5v10h72v-9q0 -29 31.5 -48.5t100.5 -19.5q73 0 102.5 17t29.5 47q0 29 -29.5 46t-101.5 17h-79v52l187 101v9q-33 -10 -59.5 -14.5t-64.5 -4.5h-174v57h373v-62z" />
    <glyph glyph-name="uni2084" unicode="&#x2084;" horiz-adv-x="460" 
d="M365 33h75v-57h-75v-72h-72v72h-263v57l238 243h97v-243zM120 42v-9h178v115q0 29 4 49.5t14 50.5h-9q-13 -23 -23 -37.5t-26 -30.5z" />
    <glyph glyph-name="uni2085" unicode="&#x2085;" horiz-adv-x="460" 
d="M85.5 -76q-48.5 32 -48.5 82v6h72v-5q0 -25 29.5 -41.5t97.5 -16.5q127 0 127 73q0 72 -129 72q-58 0 -86.5 -9.5t-43.5 -26.5h-69l26 218h359v-57h-305l-16 -120h9q19 22 50 34.5t93 12.5q93 0 138.5 -34.5t45.5 -92.5q0 -59 -48 -93t-151 -34q-102 0 -150.5 32z" />
    <glyph glyph-name="uni2086" unicode="&#x2086;" horiz-adv-x="494" 
d="M92.5 -61q-52.5 47 -52.5 151q0 198 217 198q99 0 148 -33t49 -81v-4h-72v3q0 12 -13.5 25.5t-41.5 23t-68 9.5q-75 0 -113.5 -35.5t-38.5 -100.5q0 -16 1 -25h9q10 26 45 45.5t110 19.5q95 0 141 -33t46 -86q0 -57 -48.5 -90.5t-156.5 -33.5q-109 0 -161.5 47zM387 16
q0 67 -135 67t-135 -67t135 -67t135 67z" />
    <glyph glyph-name="uni2087" unicode="&#x2087;" horiz-adv-x="425" 
d="M132 -96q0 210 208 298v9h-300v65h360v-75q-105 -50 -148 -126t-43 -171h-77z" />
    <glyph glyph-name="uni2088" unicode="&#x2088;" horiz-adv-x="500" 
d="M360 92q44 -3 72 -27.5t28 -62.5q0 -50 -49 -80t-161 -30t-161 30t-49 80q0 38 28 62.5t72 27.5v9q-42 3 -66 26t-24 59q0 46 46.5 74t153.5 28t153.5 -28t46.5 -74q0 -36 -24 -59t-66 -26v-9zM150 134q28 -15 100 -15t100 15t28 41t-28 41t-100 15t-100 -15t-28 -41
t28 -41zM358 -35.5q30 15.5 30 43.5t-30 43.5t-108 15.5t-108 -15.5t-30 -43.5t30 -43.5t108 -15.5t108 15.5z" />
    <glyph glyph-name="uni2089" unicode="&#x2089;" horiz-adv-x="494" 
d="M126 -92.5q-44 15.5 -65 40.5t-21 53v4h72v-3q0 -10 13.5 -22.5t41.5 -21.5t68 -9q75 0 113.5 34.5t38.5 96.5q0 16 -1 25h-9q-10 -26 -45 -45.5t-110 -19.5q-96 0 -141.5 33.5t-45.5 88.5q0 126 205 126q109 0 161.5 -47t52.5 -151q0 -198 -217 -198q-67 0 -111 15.5z
M377 162q0 69 -135 69t-135 -69q0 -70 135 -70t135 70z" />
    <glyph glyph-name="uni20A9" unicode="&#x20a9;" horiz-adv-x="1159" 
d="M1139 405h-152l-32 -100h184v-70h-205l-74 -235h-125l-131 395q-18 56 -18 112v2h-13v-2q0 -56 -18 -112l-131 -395h-125l-74 235h-205v70h184l-32 100h-152v70h130l-70 225h105l161 -541q16 -54 16 -95v-3h13v3q0 49 15 95l132 411h115l132 -411q15 -46 15 -95v-3h13v3
q0 41 16 95l161 541h105l-70 -225h130v-70z" />
    <glyph glyph-name="Euro" unicode="&#x20ac;" horiz-adv-x="976" 
d="M411.5 584q-88.5 -45 -123.5 -124h407v-65h-427q-3 -22 -3 -45q0 -22 3 -45h427v-65h-407q35 -79 123.5 -124t225.5 -45q86 0 149 12t120 34v-80q-59 -25 -124 -37t-145 -12q-186 0 -302 68t-153 184h-147v65h133q-3 23 -3 45q0 23 3 45h-133v65h147q37 116 153 184
t302 68q78 0 143.5 -13t125.5 -38v-78q-57 22 -120 34t-149 12q-137 0 -225.5 -45z" />
    <glyph glyph-name="uni20B4" unicode="&#x20b4;" horiz-adv-x="1010" 
d="M945 450v-65h-880v65h675q42 32 42 76q0 46 -63 77t-214 31q-101 0 -163 -16.5t-88 -41t-26 -51.5v-15h-103v16q0 50 37.5 92t122.5 68t220 26q204 0 292 -48t88 -121q0 -56 -40 -93h100zM65 250v65h880v-65h-675q-42 -32 -42 -76q0 -46 63 -77t214 -31q101 0 163 16.5
t88 41t26 51.5v15h103v-16q0 -50 -37.5 -92t-122.5 -68t-220 -26q-204 0 -292 48t-88 121q0 56 40 93h-100z" />
    <glyph glyph-name="uni20B8" unicode="&#x20b8;" horiz-adv-x="807" 
d="M772 622h-737v78h737v-78zM455 0h-103v434h-317v78h737v-78h-317v-434z" />
    <glyph glyph-name="uni20B9" unicode="&#x20b9;" horiz-adv-x="871" 
d="M821 700v-83h-192q53 -53 60 -121h132v-65h-134q-12 -64 -59.5 -114.5t-112.5 -61.5v-15q42 -3 69.5 -24.5t60.5 -76.5l83 -139h-125l-80 136q-23 39 -45.5 58t-55 26t-88.5 7h-269v83h336q81 0 128.5 32.5t58.5 88.5h-523v65h523q-11 56 -58.5 88.5t-128.5 32.5h-336v83
h756z" />
    <glyph glyph-name="uni20BA" unicode="&#x20ba;" horiz-adv-x="875" 
d="M727 290h103v-23q0 -133 -78.5 -200t-251.5 -67h-305v220l-160 -62v72l160 62v106l-160 -62v72l160 62v230h103v-190l292 113v-72l-292 -113v-106l292 113v-72l-292 -113v-172h180q135 0 192 45t57 139v18z" />
    <glyph glyph-name="uni20BD" unicode="&#x20bd;" horiz-adv-x="966" 
d="M634 700q133 0 202.5 -60.5t69.5 -163.5q0 -100 -69.5 -159.5t-202.5 -59.5h-341v-85h270v-70h-270v-102h-103v102h-160v70h160v85h-160v83h160v360h444zM634 340q83 0 126 36.5t43 99.5t-43 99.5t-126 36.5h-344v-272h344z" />
    <glyph glyph-name="uni20BF" unicode="&#x20bf;" horiz-adv-x="916" 
d="M806 50.5q-60 -49.5 -187 -50.5v-132h-78v132h-181v-132h-78v132h-187v700h187v132h78v-132h181v132h78v-132q110 -2 166 -49.5t56 -126.5q0 -64 -38 -105.5t-100 -49.5v-15q76 -6 119.5 -50t43.5 -116q0 -88 -60 -137.5zM198 612v-216h408q64 0 98 29.5t34 78.5
q0 50 -34 79t-98 29h-408zM616 88q75 0 111 29.5t36 82.5q0 54 -36 83.5t-111 29.5h-418v-225h418z" />
    <glyph glyph-name="uni2116" unicode="&#x2116;" horiz-adv-x="1396" 
d="M95 0v700h162l528 -639h13q-9 40 -13 70.5t-4 74.5v494h100v-700h-162l-528 639h-13q9 -40 13 -70.5t4 -74.5v-494h-100zM1008.5 171.5q-52.5 49.5 -52.5 128.5t52.5 128.5t142.5 49.5t142.5 -49.5t52.5 -128.5t-52.5 -128.5t-142.5 -49.5t-142.5 49.5zM1244 216.5
q35 32.5 35 83.5t-35 83.5t-93 32.5t-93 -32.5t-35 -83.5t35 -83.5t93 -32.5t93 32.5zM1336 0h-370v62h370v-62z" />
    <glyph glyph-name="trademark" unicode="&#x2122;" horiz-adv-x="873" 
d="M222 380h-67v258h-120v62h307v-62h-120v-258zM387 380v320h113l83 -160q8 -14 10.5 -24.5t4.5 -26.5h9q2 16 4.5 26.5t10.5 24.5l83 160h113v-320h-67v175q0 35 2 59t8 51h-9l-113 -211h-73l-113 211h-9q6 -27 8 -51t2 -59v-175h-67z" />
    <glyph glyph-name="uni2150" unicode="&#x2150;" horiz-adv-x="1170" 
d="M266 385h139v-57h-360v57h154v112q0 33 5 57.5t18 65.5h-9q-15 -44 -48.5 -69t-94.5 -25v57h18q59 0 87.5 28t28.5 78v11h62v-315zM380 0h-90l520 700h90zM877 0q0 210 208 298v9h-300v65h360v-75q-105 -50 -148 -126t-43 -171h-77z" />
    <glyph glyph-name="uni2151" unicode="&#x2151;" horiz-adv-x="1209" 
d="M266 385h139v-57h-360v57h154v112q0 33 5 57.5t18 65.5h-9q-15 -44 -48.5 -69t-94.5 -25v57h18q59 0 87.5 28t28.5 78v11h62v-315zM380 0h-90l520 700h90zM841 3.5q-44 15.5 -65 40.5t-21 53v4h72v-3q0 -10 13.5 -22.5t41.5 -21.5t68 -9q75 0 113.5 34.5t38.5 96.5
q0 16 -1 25h-9q-10 -26 -45 -45.5t-110 -19.5q-96 0 -141.5 33.5t-45.5 88.5q0 126 205 126q109 0 161.5 -47t52.5 -151q0 -198 -217 -198q-67 0 -111 15.5zM1092 258q0 69 -135 69t-135 -69q0 -70 135 -70t135 70z" />
    <glyph glyph-name="uni2153" unicode="&#x2153;" horiz-adv-x="1153" 
d="M266 385h139v-57h-360v57h154v112q0 33 5 57.5t18 65.5h-9q-15 -44 -48.5 -69t-94.5 -25v57h18q59 0 87.5 28t28.5 78v11h62v-315zM380 0h-90l520 700h90zM945 224q183 -4 183 -118q0 -53 -48.5 -85.5t-155.5 -32.5t-155.5 33.5t-48.5 90.5v10h72v-9q0 -29 31.5 -48.5
t100.5 -19.5q73 0 102.5 17t29.5 47q0 29 -29.5 46t-101.5 17h-79v52l187 101v9q-33 -10 -59.5 -14.5t-64.5 -4.5h-174v57h373v-62z" />
    <glyph glyph-name="uni2154" unicode="&#x2154;" horiz-adv-x="1193" 
d="M122 385h323v-57h-395v59q0 53 28.5 82t68.5 40t102 18q46 6 71 11.5t41.5 17.5t16.5 35q0 29 -30.5 46.5t-100.5 17.5q-71 0 -100.5 -19t-29.5 -55v-9h-72v11q0 61 47.5 95t154.5 34q106 0 154.5 -31.5t48.5 -82.5q0 -43 -25 -67t-60.5 -34.5t-94.5 -19.5
q-50 -8 -79 -16t-49 -24.5t-20 -45.5v-6zM420 0h-90l520 700h90zM985 224q183 -4 183 -118q0 -53 -48.5 -85.5t-155.5 -32.5t-155.5 33.5t-48.5 90.5v10h72v-9q0 -29 31.5 -48.5t100.5 -19.5q73 0 102.5 17t29.5 47q0 29 -29.5 46t-101.5 17h-79v52l187 101v9
q-33 -10 -59.5 -14.5t-64.5 -4.5h-174v57h373v-62z" />
    <glyph glyph-name="uni2155" unicode="&#x2155;" horiz-adv-x="1175" 
d="M266 385h139v-57h-360v57h154v112q0 33 5 57.5t18 65.5h-9q-15 -44 -48.5 -69t-94.5 -25v57h18q59 0 87.5 28t28.5 78v11h62v-315zM380 0h-90l520 700h90zM800.5 20q-48.5 32 -48.5 82v6h72v-5q0 -25 29.5 -41.5t97.5 -16.5q127 0 127 73q0 72 -129 72q-58 0 -86.5 -9.5
t-43.5 -26.5h-69l26 218h359v-57h-305l-16 -120h9q19 22 50 34.5t93 12.5q93 0 138.5 -34.5t45.5 -92.5q0 -59 -48 -93t-151 -34q-102 0 -150.5 32z" />
    <glyph glyph-name="uni2156" unicode="&#x2156;" horiz-adv-x="1215" 
d="M122 385h323v-57h-395v59q0 53 28.5 82t68.5 40t102 18q46 6 71 11.5t41.5 17.5t16.5 35q0 29 -30.5 46.5t-100.5 17.5q-71 0 -100.5 -19t-29.5 -55v-9h-72v11q0 61 47.5 95t154.5 34q106 0 154.5 -31.5t48.5 -82.5q0 -43 -25 -67t-60.5 -34.5t-94.5 -19.5
q-50 -8 -79 -16t-49 -24.5t-20 -45.5v-6zM420 0h-90l520 700h90zM840.5 20q-48.5 32 -48.5 82v6h72v-5q0 -25 29.5 -41.5t97.5 -16.5q127 0 127 73q0 72 -129 72q-58 0 -86.5 -9.5t-43.5 -26.5h-69l26 218h359v-57h-305l-16 -120h9q19 22 50 34.5t93 12.5q93 0 138.5 -34.5
t45.5 -92.5q0 -59 -48 -93t-151 -34q-102 0 -150.5 32z" />
    <glyph glyph-name="uni2157" unicode="&#x2157;" horiz-adv-x="1168" 
d="M260 552q183 -4 183 -118q0 -53 -48.5 -85.5t-155.5 -32.5t-155.5 33.5t-48.5 90.5v10h72v-9q0 -29 31.5 -48.5t100.5 -19.5q73 0 102.5 17t29.5 47q0 29 -29.5 46t-101.5 17h-79v52l187 101v9q-33 -10 -59.5 -14.5t-64.5 -4.5h-174v57h373v-62zM373 0h-90l520 700h90z
M793.5 20q-48.5 32 -48.5 82v6h72v-5q0 -25 29.5 -41.5t97.5 -16.5q127 0 127 73q0 72 -129 72q-58 0 -86.5 -9.5t-43.5 -26.5h-69l26 218h359v-57h-305l-16 -120h9q19 22 50 34.5t93 12.5q93 0 138.5 -34.5t45.5 -92.5q0 -59 -48 -93t-151 -34q-102 0 -150.5 32z" />
    <glyph glyph-name="uni2158" unicode="&#x2158;" horiz-adv-x="1200" 
d="M365 457h75v-57h-75v-72h-72v72h-263v57l238 243h97v-243zM120 466v-9h178v115q0 29 4 49.5t14 50.5h-9q-13 -23 -23 -37.5t-26 -30.5zM405 0h-90l520 700h90zM825.5 20q-48.5 32 -48.5 82v6h72v-5q0 -25 29.5 -41.5t97.5 -16.5q127 0 127 73q0 72 -129 72
q-58 0 -86.5 -9.5t-43.5 -26.5h-69l26 218h359v-57h-305l-16 -120h9q19 22 50 34.5t93 12.5q93 0 138.5 -34.5t45.5 -92.5q0 -59 -48 -93t-151 -34q-102 0 -150.5 32z" />
    <glyph glyph-name="uni2159" unicode="&#x2159;" horiz-adv-x="1209" 
d="M266 385h139v-57h-360v57h154v112q0 33 5 57.5t18 65.5h-9q-15 -44 -48.5 -69t-94.5 -25v57h18q59 0 87.5 28t28.5 78v11h62v-315zM380 0h-90l520 700h90zM807.5 35q-52.5 47 -52.5 151q0 198 217 198q99 0 148 -33t49 -81v-4h-72v3q0 12 -13.5 25.5t-41.5 23t-68 9.5
q-75 0 -113.5 -35.5t-38.5 -100.5q0 -16 1 -25h9q10 26 45 45.5t110 19.5q95 0 141 -33t46 -86q0 -57 -48.5 -90.5t-156.5 -33.5q-109 0 -161.5 47zM1102 112q0 67 -135 67t-135 -67t135 -67t135 67z" />
    <glyph glyph-name="uni215A" unicode="&#x215a;" horiz-adv-x="1194" 
d="M85.5 348q-48.5 32 -48.5 82v6h72v-5q0 -25 29.5 -41.5t97.5 -16.5q127 0 127 73q0 72 -129 72q-58 0 -86.5 -9.5t-43.5 -26.5h-69l26 218h359v-57h-305l-16 -120h9q19 22 50 34.5t93 12.5q93 0 138.5 -34.5t45.5 -92.5q0 -59 -48 -93t-151 -34q-102 0 -150.5 32zM365 0
h-90l520 700h90zM792.5 35q-52.5 47 -52.5 151q0 198 217 198q99 0 148 -33t49 -81v-4h-72v3q0 12 -13.5 25.5t-41.5 23t-68 9.5q-75 0 -113.5 -35.5t-38.5 -100.5q0 -16 1 -25h9q10 26 45 45.5t110 19.5q95 0 141 -33t46 -86q0 -57 -48.5 -90.5t-156.5 -33.5
q-109 0 -161.5 47zM1087 112q0 67 -135 67t-135 -67t135 -67t135 67z" />
    <glyph glyph-name="oneeighth" unicode="&#x215b;" horiz-adv-x="1215" 
d="M266 385h139v-57h-360v57h154v112q0 33 5 57.5t18 65.5h-9q-15 -44 -48.5 -69t-94.5 -25v57h18q59 0 87.5 28t28.5 78v11h62v-315zM380 0h-90l520 700h90zM1075 188q44 -3 72 -27.5t28 -62.5q0 -50 -49 -80t-161 -30t-161 30t-49 80q0 38 28 62.5t72 27.5v9q-42 3 -66 26
t-24 59q0 46 46.5 74t153.5 28t153.5 -28t46.5 -74q0 -36 -24 -59t-66 -26v-9zM865 230q28 -15 100 -15t100 15t28 41t-28 41t-100 15t-100 -15t-28 -41t28 -41zM1073 60.5q30 15.5 30 43.5t-30 43.5t-108 15.5t-108 -15.5t-30 -43.5t30 -43.5t108 -15.5t108 15.5z" />
    <glyph glyph-name="threeeighths" unicode="&#x215c;" horiz-adv-x="1208" 
d="M260 552q183 -4 183 -118q0 -53 -48.5 -85.5t-155.5 -32.5t-155.5 33.5t-48.5 90.5v10h72v-9q0 -29 31.5 -48.5t100.5 -19.5q73 0 102.5 17t29.5 47q0 29 -29.5 46t-101.5 17h-79v52l187 101v9q-33 -10 -59.5 -14.5t-64.5 -4.5h-174v57h373v-62zM373 0h-90l520 700h90z
M1068 188q44 -3 72 -27.5t28 -62.5q0 -50 -49 -80t-161 -30t-161 30t-49 80q0 38 28 62.5t72 27.5v9q-42 3 -66 26t-24 59q0 46 46.5 74t153.5 28t153.5 -28t46.5 -74q0 -36 -24 -59t-66 -26v-9zM858 230q28 -15 100 -15t100 15t28 41t-28 41t-100 15t-100 -15t-28 -41
t28 -41zM1066 60.5q30 15.5 30 43.5t-30 43.5t-108 15.5t-108 -15.5t-30 -43.5t30 -43.5t108 -15.5t108 15.5z" />
    <glyph glyph-name="fiveeighths" unicode="&#x215d;" horiz-adv-x="1200" 
d="M85.5 348q-48.5 32 -48.5 82v6h72v-5q0 -25 29.5 -41.5t97.5 -16.5q127 0 127 73q0 72 -129 72q-58 0 -86.5 -9.5t-43.5 -26.5h-69l26 218h359v-57h-305l-16 -120h9q19 22 50 34.5t93 12.5q93 0 138.5 -34.5t45.5 -92.5q0 -59 -48 -93t-151 -34q-102 0 -150.5 32zM365 0
h-90l520 700h90zM1060 188q44 -3 72 -27.5t28 -62.5q0 -50 -49 -80t-161 -30t-161 30t-49 80q0 38 28 62.5t72 27.5v9q-42 3 -66 26t-24 59q0 46 46.5 74t153.5 28t153.5 -28t46.5 -74q0 -36 -24 -59t-66 -26v-9zM850 230q28 -15 100 -15t100 15t28 41t-28 41t-100 15
t-100 -15t-28 -41t28 -41zM1058 60.5q30 15.5 30 43.5t-30 43.5t-108 15.5t-108 -15.5t-30 -43.5t30 -43.5t108 -15.5t108 15.5z" />
    <glyph glyph-name="seveneighths" unicode="&#x215e;" horiz-adv-x="1135" 
d="M132 328q0 210 208 298v9h-300v65h360v-75q-105 -50 -148 -126t-43 -171h-77zM300 0h-90l520 700h90zM995 188q44 -3 72 -27.5t28 -62.5q0 -50 -49 -80t-161 -30t-161 30t-49 80q0 38 28 62.5t72 27.5v9q-42 3 -66 26t-24 59q0 46 46.5 74t153.5 28t153.5 -28t46.5 -74
q0 -36 -24 -59t-66 -26v-9zM785 230q28 -15 100 -15t100 15t28 41t-28 41t-100 15t-100 -15t-28 -41t28 -41zM993 60.5q30 15.5 30 43.5t-30 43.5t-108 15.5t-108 -15.5t-30 -43.5t30 -43.5t108 -15.5t108 15.5z" />
    <glyph glyph-name="uni215F" unicode="&#x215f;" horiz-adv-x="715" 
d="M266 385h139v-57h-360v57h154v112q0 33 5 57.5t18 65.5h-9q-15 -44 -48.5 -69t-94.5 -25v57h18q59 0 87.5 28t28.5 78v11h62v-315zM380 0h-90l520 700h90z" />
    <glyph glyph-name="arrowleft" unicode="&#x2190;" horiz-adv-x="1050" 
d="M360 80q0 108 -67 173t-190 65h-13v65h13q123 0 190 65t67 173v15h88v-22q0 -172 -158 -218v-13q91 14 185 14h495v-93h-495q-94 0 -185 14v-13q158 -46 158 -218v-22h-88v15z" />
    <glyph glyph-name="arrowup" unicode="&#x2191;" horiz-adv-x="1050" 
d="M479 415q0 94 14 185h-13q-46 -158 -217 -158h-23v88h15q108 0 173 67t65 190v13h65v-13q0 -123 65 -190t173 -67h15v-88h-23q-171 0 -217 158h-13q14 -91 14 -185v-515h-93v515z" />
    <glyph glyph-name="arrowright" unicode="&#x2192;" horiz-adv-x="1050" 
d="M602 87q0 172 158 218v13q-91 -14 -185 -14h-495v93h495q94 0 185 -14v13q-158 46 -158 218v22h88v-15q0 -108 67 -173t190 -65h13v-65h-13q-123 0 -190 -65t-67 -173v-15h-88v22z" />
    <glyph glyph-name="arrowdown" unicode="&#x2193;" horiz-adv-x="1050" 
d="M493 -87q0 123 -65 190t-173 67h-15v88h23q171 0 217 -158h13q-14 91 -14 185v515h93v-515q0 -94 -14 -185h13q46 158 217 158h23v-88h-15q-108 0 -173 -67t-65 -190v-13h-65v13z" />
    <glyph glyph-name="arrowboth" unicode="&#x2194;" horiz-adv-x="1050" 
d="M300 97q0 64 -27.5 115t-78 79.5t-116.5 28.5h-13v60h13q66 0 116.5 28.5t78 79.5t27.5 115v15h73v-23q0 -158 -143 -202v-13q91 14 185 14h220q94 0 185 -14v13q-143 44 -143 202v23h73v-15q0 -64 27.5 -115t78 -79.5t116.5 -28.5h13v-60h-13q-66 0 -116.5 -28.5
t-78 -79.5t-27.5 -115v-15h-73v23q0 158 143 202v13q-91 -14 -185 -14h-220q-94 0 -185 14v-13q143 -44 143 -202v-23h-73v15z" />
    <glyph glyph-name="arrowupdn" unicode="&#x2195;" horiz-adv-x="1050" 
d="M495 -97q0 66 -28.5 116.5t-79.5 78t-115 27.5h-15v73h23q158 0 202 -143h13q-14 91 -14 185v220q0 94 14 185h-13q-44 -143 -202 -143h-23v73h15q64 0 115 27.5t79.5 78t28.5 116.5v13h60v-13q0 -66 28.5 -116.5t79.5 -78t115 -27.5h15v-73h-23q-158 0 -202 143h-13
q14 -91 14 -185v-220q0 -94 -14 -185h13q44 143 202 143h23v-73h-15q-64 0 -115 -27.5t-79.5 -78t-28.5 -116.5v-13h-60v13z" />
    <glyph glyph-name="uni2196" unicode="&#x2196;" horiz-adv-x="1050" 
d="M442 396q-69 69 -121 141l-9 -9q31 -59 31 -111q0 -82 -73 -155l-16 -16l-63 62l11 11q38 38 58 81.5t20 88.5q0 47 -22.5 93t-68.5 87l-10 9l46 46l9 -9q87 -87 181 -87q87 0 169 74l11 10l62 -62l-16 -16q-73 -73 -155 -73q-55 0 -110 31l-9 -9q73 -54 140 -121
l420 -419l-66 -66z" />
    <glyph glyph-name="uni2197" unicode="&#x2197;" horiz-adv-x="1050" 
d="M189 -23l-66 66l420 419q67 67 140 121l-9 9q-55 -31 -110 -31q-82 0 -155 73l-16 16l62 62l11 -10q82 -74 169 -74q94 0 181 87l9 9l46 -46l-10 -9q-46 -41 -68.5 -87t-22.5 -93q0 -45 20 -88.5t58 -81.5l11 -11l-63 -62l-16 16q-73 73 -73 155q0 52 31 111l-9 9
q-52 -72 -121 -141z" />
    <glyph glyph-name="uni2198" unicode="&#x2198;" horiz-adv-x="1050" 
d="M816 -14q-87 87 -181 87q-87 0 -169 -74l-11 -10l-62 62l16 16q73 73 155 73q55 0 110 -31l9 9q-73 54 -140 121l-420 419l66 66l419 -419q69 -69 121 -141l9 9q-31 59 -31 111q0 82 73 155l16 16l63 -62l-11 -11q-38 -38 -58 -81.5t-20 -88.5q0 -47 22.5 -93t68.5 -87
l10 -9l-46 -46z" />
    <glyph glyph-name="uni2199" unicode="&#x2199;" horiz-adv-x="1050" 
d="M225 -23l-46 46l10 9q46 41 68.5 87t22.5 93q0 45 -20 88.5t-58 81.5l-11 11l63 62l16 -16q73 -73 73 -155q0 -52 -31 -111l9 -9q52 72 121 141l419 419l66 -66l-420 -419q-67 -67 -140 -121l9 -9q55 31 110 31q82 0 155 -73l16 -16l-62 -62l-11 10q-82 74 -169 74
q-94 0 -181 -87z" />
    <glyph glyph-name="minus" unicode="&#x2212;" horiz-adv-x="600" 
d="M535 312h-470v77h470v-77z" />
    <glyph glyph-name="approxequal" unicode="&#x2248;" horiz-adv-x="620" 
d="M364 373q-32 16 -74 48q-32 25 -54.5 37.5t-47.5 12.5q-23 0 -37 -13.5t-14 -34.5q0 -30 13 -56h-63q-17 31 -17 68q0 46 28.5 72t83.5 26q42 0 74 -16t74 -48q32 -25 54.5 -37.5t47.5 -12.5q23 0 37 13.5t14 34.5q0 30 -13 56h63q17 -31 17 -68q0 -46 -28.5 -72
t-83.5 -26q-42 0 -74 16zM364 183q-32 16 -74 48q-32 25 -54.5 37.5t-47.5 12.5q-23 0 -37 -13.5t-14 -34.5q0 -30 13 -56h-63q-17 31 -17 68q0 46 28.5 72t83.5 26q42 0 74 -16t74 -48q32 -25 54.5 -37.5t47.5 -12.5q23 0 37 13.5t14 34.5q0 30 -13 56h63q17 -31 17 -68
q0 -46 -28.5 -72t-83.5 -26q-42 0 -74 16z" />
    <glyph glyph-name="notequal" unicode="&#x2260;" horiz-adv-x="610" 
d="M540 494v-72h-157l-80 -144h237v-72h-277l-59 -106h-77l59 106h-116v72h156l80 144h-236v72h276l59 106h77l-59 -106h117z" />
    <glyph glyph-name="lessequal" unicode="&#x2264;" horiz-adv-x="585" 
d="M60 446l450 169v-77l-356 -125l356 -126v-77l-450 169v67zM510 85h-450v67h450v-67z" />
    <glyph glyph-name="greaterequal" unicode="&#x2265;" horiz-adv-x="585" 
d="M75 538v77l450 -169v-67l-450 -169v77l356 126zM525 85h-450v67h450v-67z" />
    <glyph glyph-name="uni2460" unicode="&#x2460;" horiz-adv-x="1240" 
d="M921.5 797.5q130.5 -67.5 202 -185t71.5 -262.5t-71.5 -262.5t-202 -185t-301.5 -67.5t-301.5 67.5t-202 185t-71.5 262.5t71.5 262.5t202 185t301.5 67.5t301.5 -67.5zM884.5 -41.5q114.5 59.5 177 162.5t62.5 229t-62.5 229t-177 162.5t-264.5 59.5t-264.5 -59.5
t-177 -162.5t-62.5 -229t62.5 -229t177 -162.5t264.5 -59.5t264.5 59.5zM671 564v-366h160v-62h-407v62h175v124q0 40 5.5 72t20.5 80h-13q-12 -35 -28.5 -58t-49 -36t-85.5 -13v62h17q73 0 105.5 31.5t32.5 100.5v3h67z" />
    <glyph glyph-name="uni2461" unicode="&#x2461;" horiz-adv-x="1240" 
d="M921.5 797.5q130.5 -67.5 202 -185t71.5 -262.5t-71.5 -262.5t-202 -185t-301.5 -67.5t-301.5 67.5t-202 185t-71.5 262.5t71.5 262.5t202 185t301.5 67.5t301.5 -67.5zM884.5 -41.5q114.5 59.5 177 162.5t62.5 229t-62.5 229t-177 162.5t-264.5 59.5t-264.5 -59.5
t-177 -162.5t-62.5 -229t62.5 -229t177 -162.5t264.5 -59.5t264.5 59.5zM830.5 359q-31.5 -28 -77 -38t-117.5 -17q-59 -5 -93 -11.5t-57 -23.5t-23 -48v-23h389v-62h-466v79q0 60 34 91t81.5 41t123.5 15q56 4 87 9t52 19t21 42q0 82 -164 82q-85 0 -124 -24.5t-39 -62.5
v-10h-77v12q0 66 58 106.5t182 40.5q126 0 183.5 -38t57.5 -98q0 -53 -31.5 -81z" />
    <glyph glyph-name="uni2462" unicode="&#x2462;" horiz-adv-x="1240" 
d="M921.5 797.5q130.5 -67.5 202 -185t71.5 -262.5t-71.5 -262.5t-202 -185t-301.5 -67.5t-301.5 67.5t-202 185t-71.5 262.5t71.5 262.5t202 185t301.5 67.5t301.5 -67.5zM884.5 -41.5q114.5 59.5 177 162.5t62.5 229t-62.5 229t-177 162.5t-264.5 59.5t-264.5 -59.5
t-177 -162.5t-62.5 -229t62.5 -229t177 -162.5t264.5 -59.5t264.5 59.5zM661 398q105 -3 153.5 -39.5t48.5 -97.5q0 -62 -56 -99.5t-183 -37.5q-126 0 -182.5 39t-56.5 106v10h77v-9q0 -37 38.5 -60.5t123.5 -23.5q162 0 162 79q0 81 -153 81h-79v47l215 117v13
q-56 -11 -95.5 -16t-85.5 -5h-188v62h443v-68z" />
    <glyph glyph-name="uni2463" unicode="&#x2463;" horiz-adv-x="1240" 
d="M318.5 -97.5q-130.5 67.5 -202 185t-71.5 262.5t71.5 262.5t202 185t301.5 67.5t301.5 -67.5t202 -185t71.5 -262.5t-71.5 -262.5t-202 -185t-301.5 -67.5t-301.5 67.5zM884.5 -41.5q114.5 59.5 177 162.5t62.5 229t-62.5 229t-177 162.5t-264.5 59.5t-264.5 -59.5
t-177 -162.5t-62.5 -229t62.5 -229t177 -162.5t264.5 -59.5t264.5 59.5zM755 136h-77v84h-314v62l277 282h114v-282h95v-62h-95v-84zM460 282h223v136q0 65 13 118h-13q-28 -47 -58 -77l-165 -164v-13z" />
    <glyph glyph-name="uni2464" unicode="&#x2464;" horiz-adv-x="1240" 
d="M318.5 -97.5q-130.5 67.5 -202 185t-71.5 262.5t71.5 262.5t202 185t301.5 67.5t301.5 -67.5t202 -185t71.5 -262.5t-71.5 -262.5t-202 -185t-301.5 -67.5t-301.5 67.5zM884.5 -41.5q114.5 59.5 177 162.5t62.5 229t-62.5 229t-177 162.5t-264.5 59.5t-264.5 -59.5
t-177 -162.5t-62.5 -229t62.5 -229t177 -162.5t264.5 -59.5t264.5 59.5zM441.5 161q-57.5 37 -57.5 96v7h77v-6q0 -31 37.5 -51.5t124.5 -20.5q158 0 158 86q0 87 -160 87q-87 0 -121 -15t-46 -40h-72l31 260h430v-62h-376l-18 -144h13q32 53 179 53q112 0 164.5 -38.5
t52.5 -105.5q0 -66 -56 -104.5t-179 -38.5q-124 0 -181.5 37z" />
    <glyph glyph-name="uni2465" unicode="&#x2465;" horiz-adv-x="1240" 
d="M318.5 -97.5q-130.5 67.5 -202 185t-71.5 262.5t71.5 262.5t202 185t301.5 67.5t301.5 -67.5t202 -185t71.5 -262.5t-71.5 -262.5t-202 -185t-301.5 -67.5t-301.5 67.5zM884.5 -41.5q114.5 59.5 177 162.5t62.5 229t-62.5 229t-177 162.5t-264.5 59.5t-264.5 -59.5
t-177 -162.5t-62.5 -229t62.5 -229t177 -162.5t264.5 -59.5t264.5 59.5zM473.5 147q-56.5 23 -81.5 72t-25 131q0 113 61 169.5t191 56.5q85 0 140 -18.5t80 -48t25 -63.5v-5h-77v4q0 17 -17 34t-54.5 28.5t-94.5 11.5q-182 0 -182 -164v-30h13q19 33 61 52t131 19
q119 0 172 -35.5t53 -97.5q0 -139 -242 -139q-97 0 -153.5 23zM755 202.5q37 21.5 37 59.5q0 39 -37.5 60.5t-132.5 21.5q-94 0 -131.5 -21.5t-37.5 -60.5q0 -38 38 -59.5t134 -21.5q93 0 130 21.5z" />
    <glyph glyph-name="uni2466" unicode="&#x2466;" horiz-adv-x="1240" 
d="M318.5 -97.5q-130.5 67.5 -202 185t-71.5 262.5t71.5 262.5t202 185t301.5 67.5t301.5 -67.5t202 -185t71.5 -262.5t-71.5 -262.5t-202 -185t-301.5 -67.5t-301.5 67.5zM884.5 -41.5q114.5 59.5 177 162.5t62.5 229t-62.5 229t-177 162.5t-264.5 59.5t-264.5 -59.5
t-177 -162.5t-62.5 -229t62.5 -229t177 -162.5t264.5 -59.5t264.5 59.5zM539 136q0 110 54 202t171 146v13h-352v67h426v-77q-120 -59 -171 -152t-51 -199h-77z" />
    <glyph glyph-name="uni2467" unicode="&#x2467;" horiz-adv-x="1240" 
d="M318.5 -97.5q-130.5 67.5 -202 185t-71.5 262.5t71.5 262.5t202 185t301.5 67.5t301.5 -67.5t202 -185t71.5 -262.5t-71.5 -262.5t-202 -185t-301.5 -67.5t-301.5 67.5zM884.5 -41.5q114.5 59.5 177 162.5t62.5 229t-62.5 229t-177 162.5t-264.5 59.5t-264.5 -59.5
t-177 -162.5t-62.5 -229t62.5 -229t177 -162.5t264.5 -59.5t264.5 59.5zM424.5 156.5q-55.5 32.5 -55.5 93.5q0 44 33.5 71t84.5 31v13q-48 3 -77 29t-29 66q0 54 53.5 85t185.5 31t185.5 -31t53.5 -85q0 -40 -29 -66t-77 -29v-13q51 -4 84.5 -31t33.5 -71
q0 -61 -55.5 -93.5t-195.5 -32.5t-195.5 32.5zM746.5 398.5q35.5 18.5 35.5 50.5q0 33 -35.5 51.5t-126.5 18.5t-126.5 -18.5t-35.5 -51.5q0 -32 35.5 -50.5t126.5 -18.5t126.5 18.5zM756.5 200.5q37.5 19.5 37.5 54.5t-37.5 54t-136.5 19t-136.5 -19t-37.5 -54t37.5 -54.5
t136.5 -19.5t136.5 19.5z" />
    <glyph glyph-name="uni2468" unicode="&#x2468;" horiz-adv-x="1240" 
d="M318.5 -97.5q-130.5 67.5 -202 185t-71.5 262.5t71.5 262.5t202 185t301.5 67.5t301.5 -67.5t202 -185t71.5 -262.5t-71.5 -262.5t-202 -185t-301.5 -67.5t-301.5 67.5zM884.5 -41.5q114.5 59.5 177 162.5t62.5 229t-62.5 229t-177 162.5t-264.5 59.5t-264.5 -59.5
t-177 -162.5t-62.5 -229t62.5 -229t177 -162.5t264.5 -59.5t264.5 59.5zM482 142q-55 18 -80 46.5t-25 60.5v5h77v-4q0 -14 17.5 -30t54.5 -27.5t94 -11.5q182 0 182 164v25h-13q-19 -33 -61 -52t-131 -19q-225 0 -225 136q0 66 56 103.5t186 37.5q97 0 153.5 -23t81.5 -72
t25 -131q0 -113 -61 -169.5t-191 -56.5q-85 0 -140 18zM750.5 373q37.5 22 37.5 63q0 40 -38 61.5t-134 21.5q-93 0 -130 -21.5t-37 -61.5q0 -41 37.5 -63t132.5 -22q94 0 131.5 22z" />
    <glyph glyph-name="uni24EA" unicode="&#x24ea;" horiz-adv-x="1240" 
d="M318.5 -97.5q-130.5 67.5 -202 185t-71.5 262.5t71.5 262.5t202 185t301.5 67.5t301.5 -67.5t202 -185t71.5 -262.5t-71.5 -262.5t-202 -185t-301.5 -67.5t-301.5 67.5zM884.5 -41.5q114.5 59.5 177 162.5t62.5 229t-62.5 229t-177 162.5t-264.5 59.5t-264.5 -59.5
t-177 -162.5t-62.5 -229t62.5 -229t177 -162.5t264.5 -59.5t264.5 59.5zM492 153q-55 29 -85 80.5t-30 116.5t30 116.5t85 80.5t128 29t128 -29t85 -80.5t30 -116.5t-30 -116.5t-85 -80.5t-128 -29t-128 29zM706 211.5q38 20.5 59 57t21 81.5t-21 81.5t-59 57t-86 20.5
t-86 -20.5t-59 -57t-21 -81.5t21 -81.5t59 -57t86 -20.5t86 20.5z" />
    <glyph glyph-name="uni24FF" unicode="&#x24ff;" horiz-adv-x="1240" 
d="M318.5 -97.5q-130.5 67.5 -202 185t-71.5 262.5t71.5 262.5t202 185t301.5 67.5t301.5 -67.5t202 -185t71.5 -262.5t-71.5 -262.5t-202 -185t-301.5 -67.5t-301.5 67.5zM748 153q55 29 85 80.5t30 116.5t-30 116.5t-85 80.5t-128 29t-128 -29t-85 -80.5t-30 -116.5
t30 -116.5t85 -80.5t128 -29t128 29zM534 211.5q-38 20.5 -59 57t-21 81.5t21 81.5t59 57t86 20.5t86 -20.5t59 -57t21 -81.5t-21 -81.5t-59 -57t-86 -20.5t-86 20.5z" />
    <glyph glyph-name="uni2776" unicode="&#x2776;" horiz-adv-x="1240" 
d="M318.5 -97.5q-130.5 67.5 -202 185t-71.5 262.5t71.5 262.5t202 185t301.5 67.5t301.5 -67.5t202 -185t71.5 -262.5t-71.5 -262.5t-202 -185t-301.5 -67.5t-301.5 67.5zM424 136h407v62h-160v366h-67v-3q0 -69 -32.5 -100.5t-105.5 -31.5h-17v-62q53 0 85.5 13t49 36
t28.5 58h13q-15 -48 -20.5 -80t-5.5 -72v-124h-175v-62z" />
    <glyph glyph-name="uni2777" unicode="&#x2777;" horiz-adv-x="1240" 
d="M318.5 -97.5q-130.5 67.5 -202 185t-71.5 262.5t71.5 262.5t202 185t301.5 67.5t301.5 -67.5t202 -185t71.5 -262.5t-71.5 -262.5t-202 -185t-301.5 -67.5t-301.5 67.5zM386 136h466v62h-389v23q0 31 22.5 47.5t57.5 23.5t92 12q72 7 117.5 17t77.5 38t32 81
q0 60 -57.5 98t-183.5 38q-124 0 -182 -40.5t-58 -106.5v-12h77v10q0 38 39 62.5t124 24.5q164 0 164 -82q0 -28 -21 -42t-52 -19t-87 -9q-76 -5 -123.5 -15t-81.5 -41t-34 -91v-79z" />
    <glyph glyph-name="uni2778" unicode="&#x2778;" horiz-adv-x="1240" 
d="M318.5 -97.5q-130.5 67.5 -202 185t-71.5 262.5t71.5 262.5t202 185t301.5 67.5t301.5 -67.5t202 -185t71.5 -262.5t-71.5 -262.5t-202 -185t-301.5 -67.5t-301.5 67.5zM807 161.5q56 37.5 56 99.5q0 29 -9.5 50t-28.5 39q-28 26 -75.5 37t-87.5 11l181 98v68h-443v-62
h188q46 0 85.5 5t95.5 16v-13l-215 -117v-47h79q153 0 153 -81q0 -79 -162 -79q-85 0 -123.5 23.5t-38.5 60.5v9h-77v-10q0 -67 56.5 -106t182.5 -39q127 0 183 37.5z" />
    <glyph glyph-name="uni2779" unicode="&#x2779;" horiz-adv-x="1240" 
d="M318.5 -97.5q-130.5 67.5 -202 185t-71.5 262.5t71.5 262.5t202 185t301.5 67.5t301.5 -67.5t202 -185t71.5 -262.5t-71.5 -262.5t-202 -185t-301.5 -67.5t-301.5 67.5zM678 220v-84h77v84h95v62h-95v282h-114l-277 -282v-62h314zM460 282v13l165 164q30 30 58 77h13
q-13 -53 -13 -118v-136h-223z" />
    <glyph glyph-name="uni277A" unicode="&#x277a;" horiz-adv-x="1240" 
d="M318.5 -97.5q-130.5 67.5 -202 185t-71.5 262.5t71.5 262.5t202 185t301.5 67.5t301.5 -67.5t202 -185t71.5 -262.5t-71.5 -262.5t-202 -185t-301.5 -67.5t-301.5 67.5zM802 162.5q56 38.5 56 104.5q0 67 -52.5 105.5t-164.5 38.5q-147 0 -179 -53h-13l18 144h376v62
h-430l-31 -260h72q12 25 46 40t121 15q160 0 160 -87q0 -86 -158 -86q-87 0 -124.5 20.5t-37.5 51.5v6h-77v-7q0 -59 57.5 -96t181.5 -37q123 0 179 38.5z" />
    <glyph glyph-name="uni277B" unicode="&#x277b;" horiz-adv-x="1240" 
d="M318.5 -97.5q-130.5 67.5 -202 185t-71.5 262.5t71.5 262.5t202 185t301.5 67.5t301.5 -67.5t202 -185t71.5 -262.5t-71.5 -262.5t-202 -185t-301.5 -67.5t-301.5 67.5zM869 263q0 62 -53 97.5t-172 35.5q-89 0 -131 -19t-61 -52h-13v30q0 164 182 164q57 0 94.5 -11.5
t54.5 -28.5t17 -34v-4h77v5q0 34 -25 63.5t-80 48t-140 18.5q-130 0 -191 -56.5t-61 -169.5q0 -82 25 -131t81.5 -72t153.5 -23q242 0 242 139zM491 202.5q-38 21.5 -38 59.5q0 39 37.5 60.5t131.5 21.5q95 0 132.5 -21.5t37.5 -60.5q0 -38 -37 -59.5t-130 -21.5
q-96 0 -134 21.5z" />
    <glyph glyph-name="uni277C" unicode="&#x277c;" horiz-adv-x="1240" 
d="M318.5 -97.5q-130.5 67.5 -202 185t-71.5 262.5t71.5 262.5t202 185t301.5 67.5t301.5 -67.5t202 -185t71.5 -262.5t-71.5 -262.5t-202 -185t-301.5 -67.5t-301.5 67.5zM616 136q0 106 51 199t171 152v77h-426v-67h352v-13q-117 -54 -171 -146t-54 -202h77z" />
    <glyph glyph-name="uni277D" unicode="&#x277d;" horiz-adv-x="1240" 
d="M318.5 -97.5q-130.5 67.5 -202 185t-71.5 262.5t71.5 262.5t202 185t301.5 67.5t301.5 -67.5t202 -185t71.5 -262.5t-71.5 -262.5t-202 -185t-301.5 -67.5t-301.5 67.5zM815.5 156.5q55.5 32.5 55.5 93.5q0 44 -33.5 71t-84.5 31v13q48 3 77 29t29 66q0 54 -53.5 85
t-185.5 31t-185.5 -31t-53.5 -85q0 -40 29 -66t77 -29v-13q-51 -4 -84.5 -31t-33.5 -71q0 -61 55.5 -93.5t195.5 -32.5t195.5 32.5zM493.5 398.5q-35.5 18.5 -35.5 50.5q0 33 35.5 51.5t126.5 18.5t126.5 -18.5t35.5 -51.5q0 -32 -35.5 -50.5t-126.5 -18.5t-126.5 18.5z
M483.5 200.5q-37.5 19.5 -37.5 54.5t37.5 54t136.5 19t136.5 -19t37.5 -54t-37.5 -54.5t-136.5 -19.5t-136.5 19.5z" />
    <glyph glyph-name="uni277E" unicode="&#x277e;" horiz-adv-x="1240" 
d="M318.5 -97.5q-130.5 67.5 -202 185t-71.5 262.5t71.5 262.5t202 185t301.5 67.5t301.5 -67.5t202 -185t71.5 -262.5t-71.5 -262.5t-202 -185t-301.5 -67.5t-301.5 67.5zM813 180.5q61 56.5 61 169.5q0 82 -25 131t-81.5 72t-153.5 23q-130 0 -186 -37.5t-56 -103.5
q0 -136 225 -136q89 0 131 19t61 52h13v-25q0 -164 -182 -164q-57 0 -94 11.5t-54.5 27.5t-17.5 30v4h-77v-5q0 -32 25 -60.5t80 -46.5t140 -18q130 0 191 56.5zM486.5 373q-37.5 22 -37.5 63q0 40 37 61.5t130 21.5q96 0 134 -21.5t38 -61.5q0 -41 -37.5 -63t-131.5 -22
q-95 0 -132.5 22z" />
    <glyph glyph-name="Iacute_J.loclNLD" horiz-adv-x="1504" 
d="M661 0h-591v88h244v524h-244v88h591v-88h-244v-524h244v-88zM377 780h-77l100 160h112zM826.5 64q-85.5 76 -85.5 214v22h103v-19q0 -99 58.5 -152t177.5 -53t177.5 53t58.5 152v331h-475v88h578v-422q0 -138 -85.5 -214t-253.5 -76t-253.5 76zM1141 780h-77l100 160h112
z" />
    <glyph glyph-name="i.loclTRK" horiz-adv-x="535" 
d="M332 77h178v-77h-470v77h203v283q0 40 -17 57.5t-57 17.5q-19 0 -34 -3.5t-35 -10.5v79q44 17 97 17q70 0 102.5 -31t32.5 -95v-314zM225.5 621.5q-17.5 15.5 -17.5 40.5t17.5 40.5t46.5 15.5t46.5 -15.5t17.5 -40.5t-17.5 -40.5t-46.5 -15.5t-46.5 15.5z" />
    <glyph glyph-name="iacute_j.loclNLD" horiz-adv-x="870" 
d="M332 77h178v-77h-470v77h203v283q0 40 -17 57.5t-57 17.5q-19 0 -34 -3.5t-35 -10.5v79q44 17 97 17q70 0 102.5 -31t32.5 -95v-314zM283 585h-77l100 160h112zM512 -212q-22 3 -47 11v77q42 -14 86 -14q81 0 118 31.5t37 94.5v372q0 40 -17 57.5t-57 17.5
q-19 0 -34 -3.5t-35 -10.5v79q44 17 97 17q70 0 102.5 -31t32.5 -95v-404q0 -202 -229 -202q-32 0 -54 3zM746 585h-77l100 160h112z" />
    <glyph glyph-name="f_f_j" horiz-adv-x="1417" 
d="M1255 474q43 -10 62.5 -39.5t19.5 -80.5v-367q0 -202 -229 -202q-32 0 -54 3t-47 11v77q42 -14 86 -14q79 0 115.5 31.5t36.5 94.5v345q0 41 -17.5 58t-59.5 17h-356v-408h-92v408h-433v-408h-92v408h-170v72h190v11q-58 6 -91.5 33t-33.5 69q0 54 60.5 89t195.5 35
q98 0 166.5 -22.5t104.5 -50.5q20 32 78.5 52.5t162.5 20.5q142 0 238.5 -51t158.5 -126v-66zM704 480q-73 86 -156 125.5t-193 39.5q-93 0 -133 -21.5t-40 -55.5q0 -31 25 -50.5t68 -37.5h429zM1201 480h12q-128 165 -348 165q-93 0 -133 -21.5t-40 -55.5q0 -31 25 -50.5
t68 -37.5h416z" />
    <glyph glyph-name="f_j" horiz-adv-x="1057" 
d="M699 -212q-22 3 -47 11v77q42 -14 86 -14q79 0 115.5 31.5t36.5 94.5v345q0 41 -17.5 58t-59.5 17h-526v-408h-92v408h-170v72h190v11q-53 5 -89 31t-36 71q0 55 67 89.5t228 34.5q155 0 225 -47t70 -126v-4h-92v5q0 47 -46 73.5t-157 26.5q-203 0 -203 -77q0 -30 26 -50
t67 -38h569q72 0 105 -31t33 -95v-367q0 -202 -229 -202q-32 0 -54 3zM875.5 616.5q-17.5 15.5 -17.5 40.5t17.5 40.5t46.5 15.5t46.5 -15.5t17.5 -40.5t-17.5 -40.5t-46.5 -15.5t-46.5 15.5z" />
    <glyph glyph-name="f_f_i.ss01" horiz-adv-x="1417" 
d="M1255 474q43 -10 62.5 -39.5t19.5 -80.5v-354h-92v333q0 41 -17.5 58t-59.5 17h-356v-408h-92v408h-433v-408h-92v408h-170v72h190v11q-58 6 -91.5 33t-33.5 69q0 54 60.5 89t195.5 35q98 0 166.5 -22.5t104.5 -50.5q20 32 78.5 52.5t162.5 20.5q142 0 238.5 -51
t158.5 -126v-66zM704 480q-73 86 -156 125.5t-193 39.5q-93 0 -133 -21.5t-40 -55.5q0 -31 25 -50.5t68 -37.5h429zM1201 480h12q-128 165 -348 165q-93 0 -133 -21.5t-40 -55.5q0 -31 25 -50.5t68 -37.5h416z" />
    <glyph glyph-name="fi.ss01" horiz-adv-x="892" 
d="M195 0v408h-170v72h190v11q-53 5 -89 31t-36 71q0 55 67 89.5t228 34.5q155 0 225 -47t70 -126v-4h-92v5q0 47 -46 73.5t-157 26.5q-203 0 -203 -77q0 -30 26 -50t67 -38h399q72 0 105 -31t33 -95v-354h-92v333q0 41 -17.5 58t-59.5 17h-356v-408h-92z" />
    <glyph glyph-name="f_j.ss01" horiz-adv-x="892" 
d="M529 -212q-22 3 -47 11v77q42 -14 86 -14q79 0 115.5 31.5t36.5 94.5v345q0 41 -17.5 58t-59.5 17h-356v-408h-92v408h-170v72h190v11q-53 5 -89 31t-36 71q0 55 67 89.5t228 34.5q155 0 225 -47t70 -126v-4h-92v5q0 47 -46 73.5t-157 26.5q-203 0 -203 -77q0 -30 26 -50
t67 -38h399q72 0 105 -31t33 -95v-367q0 -202 -229 -202q-32 0 -54 3z" />
    <glyph glyph-name="I.ss01" horiz-adv-x="293" 
d="M198 0h-103v700h103v-700z" />
    <glyph glyph-name="Ibreve.ss01" horiz-adv-x="293" 
d="M198 0h-103v700h103v-700zM-33.5 818q-61.5 48 -70.5 132h85q7 -51 48 -79.5t117 -28.5q77 0 118 28.5t48 79.5h85q-9 -84 -70.5 -132t-180.5 -48q-118 0 -179.5 48z" />
    <glyph glyph-name="Icircumflex.ss01" horiz-adv-x="293" 
d="M198 0h-103v700h103v-700zM192 945l200 -170h-113l-132 119l-133 -119h-113l200 170h91z" />
    <glyph glyph-name="Idieresis.ss01" horiz-adv-x="293" 
d="M198 0h-103v700h103v-700zM-44 809.5q-18 15.5 -18 40.5q0 24 18 39.5t49 15.5t49 -15.5t18 -39.5q0 -25 -18 -40.5t-49 -15.5t-49 15.5zM240 809.5q-18 15.5 -18 40.5q0 24 18 39.5t49 15.5t49 -15.5t18 -39.5q0 -25 -18 -40.5t-49 -15.5t-49 15.5z" />
    <glyph glyph-name="Idotaccent.ss01" horiz-adv-x="293" 
d="M198 0h-103v700h103v-700zM89.5 807q-20.5 18 -20.5 46q0 27 20.5 45t56.5 18t57 -18t21 -45q0 -28 -21 -46t-57 -18t-56.5 18z" />
    <glyph glyph-name="Igrave.ss01" horiz-adv-x="293" 
d="M198 0h-103v700h103v-700zM222 775h-87l-163 170h130z" />
    <glyph glyph-name="Imacron.ss01" horiz-adv-x="293" 
d="M198 0h-103v700h103v-700zM355 828h-416v74h416v-74z" />
    <glyph glyph-name="Iogonek.ss01" horiz-adv-x="293" 
d="M198 0q-123 -37 -123 -102q0 -25 17 -40.5t49 -15.5q30 0 57 12v-73q-31 -16 -79 -16q-63 0 -97 29.5t-34 76.5q0 41 27 77t80 56v696h103v-700z" />
    <glyph glyph-name="Itilde.ss01" horiz-adv-x="293" 
d="M198 0h-103v700h103v-700zM-49 775q-30 45 -30 90q0 43 28 69t77 26q43 0 74.5 -18t71.5 -53q28 -24 46.5 -35.5t37.5 -11.5q18 0 28.5 11t10.5 32q0 36 -27 75h74q30 -45 30 -90q0 -43 -28 -69t-77 -26q-43 0 -74.5 18t-71.5 53q-28 24 -46.5 35.5t-37.5 11.5
q-18 0 -28.5 -11t-10.5 -32q0 -36 27 -75h-74z" />
    <glyph glyph-name="Iacute.ss01" horiz-adv-x="293" 
d="M198 0h-103v700h103v-700zM159 775h-87l120 170h130z" />
    <glyph glyph-name="IJ.ss01" horiz-adv-x="1106" 
d="M198 0h-103v700h103v-700zM428.5 64q-85.5 76 -85.5 214v22h103v-19q0 -99 58.5 -152t177.5 -53t177.5 53t58.5 152v331h-475v88h578v-422q0 -138 -85.5 -214t-253.5 -76t-253.5 76z" />
    <glyph glyph-name="Iacute_J.loclNLD.ss01" horiz-adv-x="1106" 
d="M198 0h-103v700h103v-700zM159 775h-87l120 170h130zM428.5 64q-85.5 76 -85.5 214v22h103v-19q0 -99 58.5 -152t177.5 -53t177.5 53t58.5 152v331h-475v88h578v-422q0 -138 -85.5 -214t-253.5 -76t-253.5 76zM744 775h-87l120 170h130z" />
    <glyph glyph-name="R.ss01" horiz-adv-x="896" 
d="M736 0l-182 262h-356v-262h-103v700h461q131 0 200.5 -60t69.5 -159q0 -76 -42 -130.5t-122 -75.5l194 -275h-120zM195 612v-267h361q82 0 124.5 36.5t42.5 97.5t-42.5 97t-124.5 36h-361z" />
    <glyph glyph-name="Racute.ss01" horiz-adv-x="896" 
d="M736 0l-182 262h-356v-262h-103v700h461q131 0 200.5 -60t69.5 -159q0 -76 -42 -130.5t-122 -75.5l194 -275h-120zM195 612v-267h361q82 0 124.5 36.5t42.5 97.5t-42.5 97t-124.5 36h-361zM468 775h-87l120 170h130z" />
    <glyph glyph-name="Rcaron.ss01" horiz-adv-x="896" 
d="M736 0l-182 262h-356v-262h-103v700h461q131 0 200.5 -60t69.5 -159q0 -76 -42 -130.5t-122 -75.5l194 -275h-120zM195 612v-267h361q82 0 124.5 36.5t42.5 97.5t-42.5 97t-124.5 36h-361zM456 826l132 119h113l-200 -170h-91l-200 170h113z" />
    <glyph glyph-name="uni0156.ss01" horiz-adv-x="896" 
d="M736 0l-182 262h-356v-262h-103v700h461q131 0 200.5 -60t69.5 -159q0 -76 -42 -130.5t-122 -75.5l194 -275h-120zM195 612v-267h361q82 0 124.5 36.5t42.5 97.5t-42.5 97t-124.5 36h-361zM526 -124q0 -46 -19.5 -85.5t-52 -63.5t-69.5 -24v70h8q41 0 69 21.5t34 56.5
q-9 -4 -26 -4q-24 0 -39.5 14.5t-15.5 36.5q0 21 14.5 35.5t36.5 14.5q60 0 60 -72z" />
    <glyph glyph-name="a.ss01" horiz-adv-x="795" 
d="M194 22q-67 34 -103 93.5t-36 136.5t36 137t103 94t159 34q111 0 180 -43t93 -114h13l-16 145h92v-505h-92l16 145h-13q-24 -71 -93 -114t-180 -43q-92 0 -159 34zM514.5 89.5q53.5 24.5 81 67t27.5 95.5q0 54 -27.5 96.5t-81 67t-129.5 24.5t-129.5 -24.5t-81 -67
t-27.5 -96.5q0 -53 27.5 -95.5t81 -67t129.5 -24.5t129.5 24.5z" />
    <glyph glyph-name="aacute.ss01" horiz-adv-x="795" 
d="M194 22q-67 34 -103 93.5t-36 136.5t36 137t103 94t159 34q111 0 180 -43t93 -114h13l-16 145h92v-505h-92l16 145h-13q-24 -71 -93 -114t-180 -43q-92 0 -159 34zM514.5 89.5q53.5 24.5 81 67t27.5 95.5q0 54 -27.5 96.5t-81 67t-129.5 24.5t-129.5 -24.5t-81 -67
t-27.5 -96.5q0 -53 27.5 -95.5t81 -67t129.5 -24.5t129.5 24.5zM400 585h-77l100 160h112z" />
    <glyph glyph-name="abreve.ss01" horiz-adv-x="795" 
d="M194 22q-67 34 -103 93.5t-36 136.5t36 137t103 94t159 34q111 0 180 -43t93 -114h13l-16 145h92v-505h-92l16 145h-13q-24 -71 -93 -114t-180 -43q-92 0 -159 34zM514.5 89.5q53.5 24.5 81 67t27.5 95.5q0 54 -27.5 96.5t-81 67t-129.5 24.5t-129.5 -24.5t-81 -67
t-27.5 -96.5q0 -53 27.5 -95.5t81 -67t129.5 -24.5t129.5 24.5zM232.5 626.5q-56.5 46.5 -63.5 123.5h78q5 -50 41.5 -77.5t100.5 -27.5t100.5 27.5t41.5 77.5h78q-7 -77 -63.5 -123.5t-156.5 -46.5t-156.5 46.5z" />
    <glyph glyph-name="acircumflex.ss01" horiz-adv-x="795" 
d="M194 22q-67 34 -103 93.5t-36 136.5t36 137t103 94t159 34q111 0 180 -43t93 -114h13l-16 145h92v-505h-92l16 145h-13q-24 -71 -93 -114t-180 -43q-92 0 -159 34zM514.5 89.5q53.5 24.5 81 67t27.5 95.5q0 54 -27.5 96.5t-81 67t-129.5 24.5t-129.5 -24.5t-81 -67
t-27.5 -96.5q0 -53 27.5 -95.5t81 -67t129.5 -24.5t129.5 24.5zM426 745l178 -160h-100l-115 108l-116 -108h-100l178 160h75z" />
    <glyph glyph-name="adieresis.ss01" horiz-adv-x="795" 
d="M194 22q-67 34 -103 93.5t-36 136.5t36 137t103 94t159 34q111 0 180 -43t93 -114h13l-16 145h92v-505h-92l16 145h-13q-24 -71 -93 -114t-180 -43q-92 0 -159 34zM514.5 89.5q53.5 24.5 81 67t27.5 95.5q0 54 -27.5 96.5t-81 67t-129.5 24.5t-129.5 -24.5t-81 -67
t-27.5 -96.5q0 -53 27.5 -95.5t81 -67t129.5 -24.5t129.5 24.5zM227 627.5q-15 13.5 -15 34.5t15 34.5t41 13.5t41 -13.5t15 -34.5t-15 -34.5t-41 -13.5t-41 13.5zM469 627.5q-15 13.5 -15 34.5t15 34.5t41 13.5t41 -13.5t15 -34.5t-15 -34.5t-41 -13.5t-41 13.5z" />
    <glyph glyph-name="agrave.ss01" horiz-adv-x="795" 
d="M194 22q-67 34 -103 93.5t-36 136.5t36 137t103 94t159 34q111 0 180 -43t93 -114h13l-16 145h92v-505h-92l16 145h-13q-24 -71 -93 -114t-180 -43q-92 0 -159 34zM514.5 89.5q53.5 24.5 81 67t27.5 95.5q0 54 -27.5 96.5t-81 67t-129.5 24.5t-129.5 -24.5t-81 -67
t-27.5 -96.5q0 -53 27.5 -95.5t81 -67t129.5 -24.5t129.5 24.5zM455 585h-77l-135 160h112z" />
    <glyph glyph-name="amacron.ss01" horiz-adv-x="795" 
d="M194 22q-67 34 -103 93.5t-36 136.5t36 137t103 94t159 34q111 0 180 -43t93 -114h13l-16 145h92v-505h-92l16 145h-13q-24 -71 -93 -114t-180 -43q-92 0 -159 34zM514.5 89.5q53.5 24.5 81 67t27.5 95.5q0 54 -27.5 96.5t-81 67t-129.5 24.5t-129.5 -24.5t-81 -67
t-27.5 -96.5q0 -53 27.5 -95.5t81 -67t129.5 -24.5t129.5 24.5zM586 641h-394v67h394v-67z" />
    <glyph glyph-name="aogonek.ss01" horiz-adv-x="795" 
d="M715 0q-83 -19 -115.5 -45t-32.5 -57q0 -26 19.5 -41t61.5 -15q34 0 67 12v-73q-35 -16 -89 -16q-73 0 -109.5 29t-36.5 77q0 42 35 79.5t109 59.5l15 135h-13q-24 -71 -93 -114t-180 -43q-92 0 -159 34t-103 93.5t-36 136.5t36 137t103 94t159 34q111 0 180 -43t93 -114
h13l-16 145h92v-505zM514.5 89.5q53.5 24.5 81 67t27.5 95.5q0 54 -27.5 96.5t-81 67t-129.5 24.5t-129.5 -24.5t-81 -67t-27.5 -96.5q0 -53 27.5 -95.5t81 -67t129.5 -24.5t129.5 24.5z" />
    <glyph glyph-name="aring.ss01" horiz-adv-x="795" 
d="M194 22q-67 34 -103 93.5t-36 136.5t36 137t103 94t159 34q111 0 180 -43t93 -114h13l-16 145h92v-505h-92l16 145h-13q-24 -71 -93 -114t-180 -43q-92 0 -159 34zM514.5 89.5q53.5 24.5 81 67t27.5 95.5q0 54 -27.5 96.5t-81 67t-129.5 24.5t-129.5 -24.5t-81 -67
t-27.5 -96.5q0 -53 27.5 -95.5t81 -67t129.5 -24.5t129.5 24.5zM282 598q-39 33 -39 84t39 84.5t107 33.5t106.5 -33.5t38.5 -84.5t-38.5 -84t-106.5 -33t-107 33zM447 642.5q20 15.5 20 39.5q0 25 -20 40.5t-58 15.5q-39 0 -59 -15.5t-20 -40.5q0 -24 20 -39.5t59 -15.5
q38 0 58 15.5z" />
    <glyph glyph-name="atilde.ss01" horiz-adv-x="795" 
d="M194 22q-67 34 -103 93.5t-36 136.5t36 137t103 94t159 34q111 0 180 -43t93 -114h13l-16 145h92v-505h-92l16 145h-13q-24 -71 -93 -114t-180 -43q-92 0 -159 34zM514.5 89.5q53.5 24.5 81 67t27.5 95.5q0 54 -27.5 96.5t-81 67t-129.5 24.5t-129.5 -24.5t-81 -67
t-27.5 -96.5q0 -53 27.5 -95.5t81 -67t129.5 -24.5t129.5 24.5zM209 580q-14 18 -22 40t-8 43q0 40 27.5 66t73.5 26q41 0 70.5 -18t62.5 -50q24 -23 40.5 -34t34.5 -11t28.5 11t10.5 31q0 17 -7.5 36t-19.5 35h69q14 -18 22 -40t8 -43q0 -40 -27.5 -66t-73.5 -26
q-41 0 -70.5 18t-62.5 50q-24 23 -40.5 34t-34.5 11t-28.5 -11t-10.5 -31q0 -17 7.5 -36t19.5 -35h-69z" />
    <glyph glyph-name="g.ss01" horiz-adv-x="795" 
d="M206.5 -205.5q-53.5 9.5 -106.5 30.5v77q62 -21 112.5 -30.5t119.5 -9.5q156 0 228.5 65t72.5 194v38h-13q-24 -63 -88.5 -103t-177.5 -40q-94 0 -161.5 32.5t-102.5 89t-35 129.5q0 72 35 129t102.5 89t160.5 32q112 0 179.5 -42.5t91.5 -110.5h13l-14 140h92v-359
q0 -183 -92 -271.5t-285 -88.5q-78 0 -131.5 9.5zM515.5 111.5q53.5 23.5 80.5 63t27 89.5t-27 89.5t-80.5 63t-130.5 23.5t-130.5 -23.5t-80.5 -63t-27 -89.5t27 -89.5t80.5 -63t130.5 -23.5t130.5 23.5z" />
    <glyph glyph-name="uni01F5.ss01" horiz-adv-x="795" 
d="M206.5 -205.5q-53.5 9.5 -106.5 30.5v77q62 -21 112.5 -30.5t119.5 -9.5q156 0 228.5 65t72.5 194v38h-13q-24 -63 -88.5 -103t-177.5 -40q-94 0 -161.5 32.5t-102.5 89t-35 129.5q0 72 35 129t102.5 89t160.5 32q112 0 179.5 -42.5t91.5 -110.5h13l-14 140h92v-359
q0 -183 -92 -271.5t-285 -88.5q-78 0 -131.5 9.5zM515.5 111.5q53.5 23.5 80.5 63t27 89.5t-27 89.5t-80.5 63t-130.5 23.5t-130.5 -23.5t-80.5 -63t-27 -89.5t27 -89.5t80.5 -63t130.5 -23.5t130.5 23.5zM399 585h-77l100 160h112z" />
    <glyph glyph-name="gbreve.ss01" horiz-adv-x="795" 
d="M206.5 -205.5q-53.5 9.5 -106.5 30.5v77q62 -21 112.5 -30.5t119.5 -9.5q156 0 228.5 65t72.5 194v38h-13q-24 -63 -88.5 -103t-177.5 -40q-94 0 -161.5 32.5t-102.5 89t-35 129.5q0 72 35 129t102.5 89t160.5 32q112 0 179.5 -42.5t91.5 -110.5h13l-14 140h92v-359
q0 -183 -92 -271.5t-285 -88.5q-78 0 -131.5 9.5zM515.5 111.5q53.5 23.5 80.5 63t27 89.5t-27 89.5t-80.5 63t-130.5 23.5t-130.5 -23.5t-80.5 -63t-27 -89.5t27 -89.5t80.5 -63t130.5 -23.5t130.5 23.5zM231.5 626.5q-56.5 46.5 -63.5 123.5h78q5 -50 41.5 -77.5
t100.5 -27.5t100.5 27.5t41.5 77.5h78q-7 -77 -63.5 -123.5t-156.5 -46.5t-156.5 46.5z" />
    <glyph glyph-name="gcircumflex.ss01" horiz-adv-x="795" 
d="M206.5 -205.5q-53.5 9.5 -106.5 30.5v77q62 -21 112.5 -30.5t119.5 -9.5q156 0 228.5 65t72.5 194v38h-13q-24 -63 -88.5 -103t-177.5 -40q-94 0 -161.5 32.5t-102.5 89t-35 129.5q0 72 35 129t102.5 89t160.5 32q112 0 179.5 -42.5t91.5 -110.5h13l-14 140h92v-359
q0 -183 -92 -271.5t-285 -88.5q-78 0 -131.5 9.5zM515.5 111.5q53.5 23.5 80.5 63t27 89.5t-27 89.5t-80.5 63t-130.5 23.5t-130.5 -23.5t-80.5 -63t-27 -89.5t27 -89.5t80.5 -63t130.5 -23.5t130.5 23.5zM425 745l178 -160h-100l-115 108l-116 -108h-100l178 160h75z" />
    <glyph glyph-name="uni0123.ss01" horiz-adv-x="795" 
d="M206.5 -205.5q-53.5 9.5 -106.5 30.5v77q62 -21 112.5 -30.5t119.5 -9.5q156 0 228.5 65t72.5 194v38h-13q-24 -63 -88.5 -103t-177.5 -40q-94 0 -161.5 32.5t-102.5 89t-35 129.5q0 72 35 129t102.5 89t160.5 32q112 0 179.5 -42.5t91.5 -110.5h13l-14 140h92v-359
q0 -183 -92 -271.5t-285 -88.5q-78 0 -131.5 9.5zM515.5 111.5q53.5 23.5 80.5 63t27 89.5t-27 89.5t-80.5 63t-130.5 23.5t-130.5 -23.5t-80.5 -63t-27 -89.5t27 -89.5t80.5 -63t130.5 -23.5t130.5 23.5zM352.5 746.5q19.5 39.5 52 63.5t69.5 24v-70h-8q-41 0 -69 -21.5
t-34 -56.5q9 4 26 4q24 0 39.5 -14.5t15.5 -36.5q0 -21 -14.5 -35.5t-36.5 -14.5q-60 0 -60 72q0 46 19.5 85.5z" />
    <glyph glyph-name="gdotaccent.ss01" horiz-adv-x="795" 
d="M206.5 -205.5q-53.5 9.5 -106.5 30.5v77q62 -21 112.5 -30.5t119.5 -9.5q156 0 228.5 65t72.5 194v38h-13q-24 -63 -88.5 -103t-177.5 -40q-94 0 -161.5 32.5t-102.5 89t-35 129.5q0 72 35 129t102.5 89t160.5 32q112 0 179.5 -42.5t91.5 -110.5h13l-14 140h92v-359
q0 -183 -92 -271.5t-285 -88.5q-78 0 -131.5 9.5zM515.5 111.5q53.5 23.5 80.5 63t27 89.5t-27 89.5t-80.5 63t-130.5 23.5t-130.5 -23.5t-80.5 -63t-27 -89.5t27 -89.5t80.5 -63t130.5 -23.5t130.5 23.5zM341.5 621.5q-17.5 15.5 -17.5 40.5t17.5 40.5t46.5 15.5
t46.5 -15.5t17.5 -40.5t-17.5 -40.5t-46.5 -15.5t-46.5 15.5z" />
    <glyph glyph-name="i.ss01" horiz-adv-x="252" 
d="M172 0h-92v505h92v-505zM79.5 621.5q-17.5 15.5 -17.5 40.5t17.5 40.5t46.5 15.5t46.5 -15.5t17.5 -40.5t-17.5 -40.5t-46.5 -15.5t-46.5 15.5z" />
    <glyph glyph-name="dotlessi.ss01" horiz-adv-x="252" 
d="M172 0h-92v505h92v-505z" />
    <glyph glyph-name="iacute.ss01" horiz-adv-x="252" 
d="M172 0h-92v505h92v-505zM137 585h-77l100 160h112z" />
    </font>
</defs>
</svg>
